&title=ないない
&artist=ReoNa
&first=0.639
&des=Kurage
&lv_5=13
&inote_5=(130)
{4}5,5,5/C,5,3,3,3,3,7,7,7/C,7,1-5[4:2],,,,
{8}
4-2[8:1],,,5,4-6[8:1],,,3,4-2[8:1],,,5,4-8[8:1],B2,E3,,
6-8[8:1],,,5,6-4[8:1],,,7,6-8[8:1],,,5,6-2[8:1],E1/B8,,8,
8-6[8:1],,B1,1,2-8[8:1],,B3,3,4-2[8:1],,B5,5,6-2[8:1],B8,E1,,
8-4[8:1],,C,B2,2-6[8:1],,C,B4,4-8[8:1],,8s4[4:1]*z4[4:1],,8h[256:1],,,,
{8}3-6[8:1],,6-3[8:1],7,3-6[8:1],,6-3[8:1],8,
3-6[8:1],,6-3-5-1[8:3],1,1-5[8:1],,1,,
{8}6-3[8:1],,3-6[8:1],2,6-3[8:1],,3-6[8:1],1,
6-3[8:1],,3-6-4-8[8:3],8,8-4[8:1],E8/E1,,,
3-6[8:1]/6-3[8:1],,36,,1-4[8:1],2,4-1[8:1],6,
5-8[8:1],6,8-5[8:1],2,1-4-1[8:2],,14,5,
6>3[8:1],,36,,18,{24}3,6,4z8[24:13],{8}5s1[4:2],E7/E3,
,,,,{4},3x>6[16:15]/6x,
{8}B5/B4/E5,,,4,5,,6q4[16:10],,{16}4,,,4,,,5,,{8}5-8[8:1],,6x<3[16:15],,
{8}E5/D5,,,5,4,,3p5[16:10],,{16}5,,,5,,,4,,{8}4-1[8:1],,3x-5[32:3],,
8-6[32:3],,4-2[32:3],3,5-7[32:3],6,1,1,
2/6<2v4[32:10],7,5,,{16}3xh[16:3],,,5x,4x,,5x,,
{4}3V58[4:2]/6V41[4:2],,,,
{48}8xb/1xb,E1,,,,,,,,,,,{12}3-5[8:1]/6-4[8:1],27,18,3b/6b,,,{4}Cf,
{8}5x<8[8:1],7,1>4b[8:1],{48}B1,C,B5,,,,{8}5x<8[8:1],7,1>4b[8:1],{48}B1,C,B5,,,,
{8}5x<8[8:1],7,1>4b[8:1],{48}B1,C,B5,,,,{8}5xpp4[4:1],7,1x/5x,,
2-5[8:1],3-8[8:1],2,3,6-1[8:1],7-4[8:1],6,7,
3,24,6,57,5-2[8:1]/4-7[8:1],36,,,
{8}4x>1b[8:1],2,8<5[8:1],{48}B8,C,B4,,,,{8}4x>1b[8:1],2,8<5[8:1],{48}B8,C,B4,,,,
{8}4x>1b[8:1],2,8<5[8:1],{48}B8,C,B4,,,,{8}4xqq5b[4:1],2,4x/8x,,
7qq6[32:5]*pp8[32:5],68,,,7>3[8:1],3>7b[8:1],7,5bh[4:1],
,{16}4,5,4,,2/1w5[8:1],,76,,{8}1b`Cf,,,
{8}1b-4[8:1]/5b,,1-6[8:1]/7-4[8:1],8,1/7-2[8:1],,5-2[8:1]/7-4[8:1],6,
7/5-8[8:1],,3-8[8:1]/5-2[8:1],4,3qq6[16:5]/5,,37,,
8-5[8:1],7,8-3[8:1]/1,2,7/8-4[8:1],6,81,2,
26,{24}4,5,3,{8}4-1[8:1]*-7[8:1],35,4-8[8:1],,4,,
{8}1-4[8:1]/7,,1-6[8:1]/7-2b[8:1],8,7-4[8:1]/1,,1-6b[8:1]/7-2[8:1],8,
1-4[8:1]/7,,1-6[8:1]/7-2b[8:1],8,7-4[8:1]/1,,1-5b[8:1]/7-3b[8:1],8,
1b/7b,,4-1[8:1],5,D3/A2/A3,,8-4b[8:1]/2-6b[8:1],1,
82,,5-8[8:1],4,D7/A7/A6,,{4}3<6b[8:1]/6,
3b/Cf,{8},18,Cf,27,4-6[32:3]/5-7[32:3],36,
4b/5b-1b[8:1],,,8,2h[8:1],{24}E2,E3,E4,{8}E5,E6/E7,
4-8b[8:1],,,1,7h[8:1],{24}E8,E7,E6,{8}E5,E4/E3,
5-1b[8:1],,1s5[4:1]*z5[4:1],,1h[256:1],,,,
