&title=Ai 系
&artist=Feryquitous
&first=0
&des=BEYOND maimai TEAM DX
&lv_6=15?
&inote_1=
&inote_6=(191)
{1},
{64}8<8[8:27],1,2,,{16},,,{4},,,{1},,,
{8}6,5,4,3,6<3>6[4:5],5,4,{2}3,{32}4,5h[32:11],,,{2},
{8}3,4,5,6,3>6<3[4:5],4,5,{2}6,{32}5,4h[32:11],,,{2},
{8}5,4,3,2,6<3>6[4:5],5,4,{2}3,{32}4,5h[32:11],,,{2},
{8}3,4,5,6h[4:1],,8,1,2h[4:1]/6b,,4,4,{16}35,26,{8}17,17,6,2,
35,5,5V31[4:1],5,57,7,7,7,25,{16}3,4,3,4,3,4,{8}2,1,8,7,
{8}64,4,4V68[4:1],4,42,2,2,2,{24}1,8,7,6,5,4,1,8,7,6,5,4,8,1,2,3,4,5,8,1,2,3,4,5,
{8}6,6,6V42[4:1],6,68,8,8,8,{16}2,4,3,5,4,6,5,7,4,6,3,5,{4}2/6h[8:1],
{16}1b,4,3,4,3,4,8b,4,3,4,3,4,7b,4,3>6[8:1],4,{8}3,,,
{32}1,8,1,8,{8}1,18,2h[8:1]/7h[8:1],,
{4}7/Ch[4:1],7<3<7[1:1],8,1h[4:3],,,,,
2/Ch[4:1],2>6>2[1:1],1,8h[4:3],,,,,
7/Ch[4:1]f,7>4>7[1:1],17,3h[4:3],,,,,
2/Ch[4:1],2,8/1h[1:1],(47.75){16}8-4[32:1]b,(191){4}7h[2:1],,,8bx,
{24}1/8h,7,6,5,4,3,28,3,4,5,6,7,81,7,6,5,4,3,28,3,4,5,6,7,
8/1h,2,3,4,5,6,71,6,5,4,3,2,18,2,3,4,5,6,71,6,5,4,3,2,
1/8h,7,6,5,4,3,28,3,4,5,6,7,8/1h,2,3,4,5,6,7/1-5[8:1]b,6,5,4,3,2,
{4}1b^4[8:1]b*^6[8:1]b,1bw5[8:1]b,1b,3hb[4:1]/7b,
{32}4,5,3,2,4,5,3,2,5,6,2,1,5,6,2,1,{8}8,8,37,37,
{32}5,4,6,7,5,4,6,7,4,3,7,8,4,3,7,8,{16}1,,,,28,,{8}46,
45,4,34,4,47,4,14,4,{12}4,5,5,5,3,5,5,5,2,5,5,5,
{16}1b,,7,8,6^1[8:1],,4,,6/2v5[8:1],3,4,,26,,6,,48,,2,1,3^8[8:1],,5,,3/7v4[8:1],6,5,,73,,3,,
51,,6,5,7-4[8:1],,8,,7/1-6[8:1],2,3,,31,,2,,{4}5^8[8:1]/1^4[8:1],5-2[8:1]/1-6[8:1],51,5b/1b,
{16}6,5,6,,3,4,3,,7,5,7,,3,5,3,,
{16}2,1,2,1,3,4,3,4,8,7,8,7,5-1[8:1],6,5,6,{8}5,,82,7/3-8[8:1],,5,5<3[4:3],,{1}Cf,
{16}3/8b,,2,1,3^8[8:1],,5,,3/7v4[8:1],6,5,,73,,3,,51,,7,8,6^1[8:1],,4,,6/2v5[8:1],3,4,,26,,6,,
48,,3,4,2-5[8:1],,1,,2/8-3[8:1],7,6,,68,,7,,{4}4^1[8:1]/8^5[8:1],4-7[8:1]/8-3[8:1],48,4b/8b,
{16}3,4,3,,6,5,6,,2,4,2,,6,4,6,,
{16}7,8,7,8,6,5,6,5,1,2,1,2,4-8[8:1],3,4,3,{8}4,,17,2/6-1[8:1],,4,4>6[4:3],,{1}Cf,
{8}1b-4[8:1],2b,A5,7b-2[8:1],6b,A3,4b-1[8:1],5b,
D8,6bV47-3[8:3],5b,B4,{4}3,1,
{8}2-6[8:1],2,1-5[8:1],1,8-4[8:1],8,7-3[8:1],7,
6-2[8:1],6,5-1[8:1],5,4,4,3h[16:1]/5h[16:1],3h[16:1]/5h[16:1],
{8}1b-6[8:1],2b,A5,4b-1[8:1],5b,A7,6b-1[8:1],5b,A2,3b,4b-1-3[16:5]*-7-5[16:5],C,{2},
{16}2,4,2,4,3,3,3,3,{32}1,8,7,6,{16}4,4,{32}1,2,3,4,{16}8,8,
{4}Cf,,,4>5[2:1]/5<4[2:1],{4}A4/D5f/A5,,,3h[8:1]/7h[8:1],
{8}2b/6b,3,45,{16}6,5,7,5,{8}6,71,2,38,{16}7,4,6,5,{8}6,4/7-5[8:1],4,3,2,
7/1-3[8:1],8,8,8,1/5^8[8:1],4,4,4,35,2,1,8,27,36,4/5h[4:1],,
{16}3,4,2,5,1,6,8,7,5,6,4,7,3,8,2,1,8,7,6,5,43,2,1,8,15,26,37,48,{4}5b/1b,
{8}12,2^5[16:1]/1^6[16:1],,A2/D2f/A1,,8^3[16:1]/7^4[16:1],,A8/D8f/A7,
,,2b/A5/E6f/A6,,,7b/A4/E4f/A3,,,1b/B4/B5/E5f,,,
4^1[16:1]/5^8[16:1],,A4/D5f/A5,,28,
{16}7,5,6,5,7,,3,4,2,4,3,,25,,34,,2,1,3,1,2,,7,8,6,8,{8}7,18,27,3b/6b,,
{16}5,4,3,2,{4}1b/D7f/E7/B7,8bh[8:3]/D4f/E4/B3,1h[8:3],3h[8:3],5h[4:1],6,
{8}7,8,1,2,34,25,{4}16,3-8[8:1]/4-7[8:1],34,,1h/5h,
{1}2q3[2:7]/7p6[2:7],,,,{8}7,6,{16}4,5,3,4,{8}2,5,7,4,2,6,8,1,3,5,6,4,
8,5,6,2,4,5,,,
{24}1,1,1,{4}1,{48}6b,5,4,3,,,,,,,,,7b,6,5,4,,,,,,,,,8b,7,6,5,,,
{4},{24}8,7,6,{4}5h[4:1],{24}1,2,3,{4}4h[4:1],
{24}8,8,8,{4}8,{48}4b,5,6,7,,,,,,,,,3b,4,5,6,,,,,,,,,2b,3,4,5,,,
{16}6,6,8,8,1,1,3,3,5,5,4,4,8V62-4[8:3],1,7,2,{8}8,5,5,5hb[4:1],,
{32}1b,84,73,62,{4}5/1h[4:1],5b^8[32:3],{32}1,2,3,4,1,2,3,4,{4}5/1b^6[32:3],
{32}5,4,3,2,5,4,3,2,{4}1/5b^8[32:3],{32}1,2,3,4,1,2,3,4,{4}1b/5,
{16}8b,8b,8b,8b,{8}17,,24,45,57,,18,27,
{32}1,1,1,1,1,1,1,1,1,1,1,1,1,1,1,1,1,2,3,4,5,6,7,8,{4}1b/5b,
{24}1/5b,2,3,4,5,6,7,8,1,2/6b,3,4,5,6,7,8,1,2,3/6b,5,4,3,2,1,
8/4b,7,6,5,4,3,2,1,8,7/3b,6,5,4,3,2,1,8,7,6/3b,4,5,6,7,8,
1/5b,2,3,4,5,6,7,8,1,2/6b,3,4,5,6,7,8,1,2,3/6b,5,4,3,2,1,
{4}8b/Cf/A3/B3/E4,2b/Cf/A6/B6/E6,7b/Cf/A2/B2/E3,1b/Cf/B4/B5/E5,
{32}2,3,4,5,6,7,8,1,2,3,4,5,1,2,3,4,7,6,5,4,3,2,1,8,7,6,5,4,8,7,6,5,
2,3,4,5,6,7,8,1,2,3,4,5,6,7,8,1,{24}2b,7b,2b,7b,2b,7b,2,6,2,6,2,6,
{32}3,3,5,4,8,8,6,7,1,1,3,2,7,7,5,6,4,5,4,5,4,5,4,5,46,57,68,7,8,1,{48}26,37,48,
{12}1-5[8:7]/5,2,3,2,3,2,4,2,3,2,3,2,
{4}1/6x-2[4:15]*V42[4:15],,,,{1},,{4},,,,,,,,
E
