&title=Alea jacta est!
&artist=BlackY; WAiKURO
&first=-0.04
&des=綾ヘルシVSカンル星人
&lv_5=14
&inote_5=(162)
{16},,,,,,,,,,,,,,,,3h[16:3],,,4,,,52,,6h[16:3],,,5,,,74,,1h[16:3],,,8,,,72,,54,,7,,54,,2,,4h[16:3],,,B6/B5,,,73,,5h[16:3],,,B4/B3,,,62,,1-5[16:2],,,,6-8[16:2],,,,2-4[16:2],,,,5,,,,7h[16:2]/5h[16:2],,,57,,,64,,2h[16:2]/4h[16:2],,,42,,,35,,5h[16:2]/4h[16:2],,,54,,,63,,6h[16:2],,2,,3h[16:2],,7,,8h[16:2]/1h[16:2],,,81,,,75,,8h[16:2]/1h[16:2],,,81,,,2/4,,4-8[16:2],,,,4b,,,,7<4[16:2]/1>4[16:2],,,,7/1,,,,3,3,4,2,2v5[16:2],,,,2x,,,,7,7,6,8,8-4[16:2],,,,8x,,,,1,2,3,4,8,,,,6,6,5,7,7-4[16:2],,,,7x,,,,3,3,4,1,1-5[16:2],,,,1x,,,,6bx,5x,4x,3x,2x,1x,8x,,2,4,3,5,1-5[16:2],,7bx,,1x,,,,7,5,6,4,8-4[16:2],,2bx,,8x,,,,1,2,3,4,8,,,,7,5,6,4,8v5[16:2],,2bx,,8x,,,,2,4,3h[16:1],,1xh[16:3]/5xh[16:3],,,,7xh[16:3]/3xh[16:3],,,,
{24}A4,D4,A3,D3,A2,D2,A1,D1,A8,D8,A7,D7,A6/5xw1[16:2],,,,,,5b,,,,,,7h[16:3]/3h[16:3],,,,,,73,,,82,,,8b-4b[16:2]/2b>4b[16:2],,,,,,8b<6b[16:2]/2b-6b[16:2],,,,,,
{16}8bx/2bx,,,,5h[16:2]/1h[16:2],,,,4xw8[16:2],,,,4b,,,,2h[16:3]/6h[16:3],,,,26,,17,,7v4[16:2],,,,7/3>8[16:3],,2,,3b/7x,,,,6,,,,2h[16:3]/5hb[16:3],,,,2x,3,4,,7bh[16:3]/4h[16:3],,,,7x,6,5,,5h[16:3]/2hb[16:3],,,,2x,3,4,,6h[16:3]/2h[16:3],,,,8-4[16:2],,3,,8,,1,,62,,7,1,8,2,6,3,5,4,5,4,8,7,6,5,4,3,2,1,8,4,3,2,1,8,7,6,5,,,73,
{32},,,,8-4pp7[16:50],1,2,3,,,,,,,,,,,,,,,,,
{16}1-3[16:1],,,1,,,,,,,,,,,,,3-1[16:1],,,3,,,,,,,,,,,,,4,,,,2,,,,6,,,,8,,,,1>4[16:2],,,1h[16:3],,,,,8<5[16:2],,,8h[16:3],,,,,1h[16:3]/3h[16:3],,,,4h[16:3]/2h[16:3],,,,53,,,64,,,82,,,,6b/5b,,2b,,,4b/3b,,7b,,,5/1,2,3,4,7,,4,,7,,3,,7h[16:4]/2x,3x,4x,5x,6x,8x,1x,2x,3xh[16:12],,,,5h[16:2],,,,6h[16:2],,,,7h[16:2],,,,7h[16:2]/5h[16:2],,,,2h[16:3]/4h[16:3],,,,5h[16:2]/3h[16:2],,,62,,,73,,1,2,3,4,2,3,4,5,3,4,5,6,7,8,1,2,3/7,6,5,4,3,2,1,8,7/2,3,4,5,6,7,8,1,6x,5x,,3x,4x,,8x,7x,,1x,2x,,6x,5x,,,1h[16:2]/5h[16:2],,,,C/B5/B1,,73,,8<5[16:2]/4>1[16:2],,B8/C/B4,,8x/4x,,,,1hb[16:4]/5hb[16:4],,,,,,1,1,8h[16:2]/2h[16:2],,,,2>5-7>1[16:6]/6h[16:8],,,,2,,,,,,,,1h[16:2]/7h[16:2],,,,7<4-2<8[16:6]/3h[16:8],,,,7,,,,,,,,3p7[16:2],,,3h[16:3],,,,,6q2[16:2],,,6h[16:3],,,,,3p7[16:2],,,3h[16:3],,,,,5h[16:3]/1h[16:3],,,,24,,48,,51,,62,,73,,8b,,8b<5[16:2]*>3[16:2],,,,8b-4[16:2],,,,8bw4[16:2],,,,8b,,,
{16}1,2,3,4,1,2,3,4,5,6,7,8,5,6,7,8,1,2,3,4,8,7,6,5,4,3,2,1,8,4,3,2,1,8x,7x,6x,5x,4x/8x,7x/3x,6x/2x,5x/1x,4x,3x,2x,1x,4x,3x,2x,1x,,,,,
{32}8b/1b,7b/2b,6b/3b,5hbx[32:21]/4hbx[32:21],,,
{16},,,,,,,,,,,63,,54,,,,65,,,54,,,43,,3,,4,,5,,6,,53,,,53,,,6h[16:2]/4h[16:2],,,,7bx,,,8b/2b,,,8b/1b,,,1b/2b,,,6bx/2bx,,
{32}5x/2x,6x/3x,7x/4x,,,,,,7x/4x,6x/3x,5x/2x,,,,,,5x/2x,6x/3x,7xh[16:2]/4xh[16:2],,,,
{16},8x,7x,6x,5x,1q5[16:1],,,6,1,,7,,8p4[16:1],,,3,8,,2,,1,,82,,82,,,73,,45,,2/6,,,87,,1bx>4[16:1],,,B8f,,,8bx<5[16:1],,,B1f,,,2bx-4[16:1],,,Cf,,,7bx-5[16:1],,,Cf,,,1bx>4[16:1],,,Cf,,,8bx,,
{16}1/5>3-1[16:2],,,5hx[16:3],,,,,8/4<6-8[16:2],,,4hx[16:3],,,,,5-1[16:1],,,2h[16:3],,,,,4-8[16:1],,,7h[16:3],,,,,1pp5[16:4],,,5h[16:3],,,,,8,7,6,5,1x,2x,3x,4x,1bp7[16:12]/5bxp3[16:12],,,,,,,,,,,,,,,,,,,,
{16}8b<5b[16:2]/4b>1b[16:2],,,,8b-3b[16:2]/4b-7b[16:2],,,,8b/4b,,,,2>5[16:2],,3,1,2,,7,,6<1[16:2],,7,5,6,,2,,
{24}8b/4b,73,62,51,,,1bx/5bx,6x/2x,7x/3x,8x/4xh[16:6],,,8-4[16:2],,,,,,8b,,,
{16}3,3,5<8[16:2],,4,6,5,,1>4[16:2],,62,,
{24}1b/8,7,6,5,,,3,,,
{24}8b/4b,73,62,51,,,1bx/5bx,6x/2x,7x/3x,8x/4xh[16:4],,,8<5b[16:2],,,,,,4x/8bx,3,2,1,,,7bh[16:2]/3bh[16:2],,,,,,
{16}7,,65,,2,,43,,7,,6-8-4[16:4]/5,,,,63,,2,,2,,1h[16:4],,7,,8,,
{24}81,72,63,5h[16:6]/4,,,
{16}3,,4,,2,,7-5[16:2],,83,,7/2-8[16:2],,3,,26,,7h[16:2],,4h[16:2],,6,5,6,4,6,3,6,2,6hb[16:2],,
{16}1x,2x,3x,8x,1x,2x,3x,7x,8x,1x,2x,3x,4xh[16:6]/5xh[16:2],,,,7<5-1[16:3],,,,74,,,,3h[16:2],,,4,2<8-4[16:3],,6,,2,,7,,7-5[16:1],,8,,7b/2-4[16:1],,1,,2b/6-4[16:1],,7b,,6/3-1[16:2],,2b,,3b/5,,5,,2,4,3,5,
{36}5x,4x,3x,2x,1x,8x,7x,6x,5x,
{16}4bxh[16:4],,,,,,8,7,6bx,4,3,2,1,7,6,5,3b,2,1,7,6,5,3,2,1bx,,,8x/4x,,,7b/3b,,24,,54,,75,,54,,1x,5x,2x,6x,3x,7x,8x,4x,1h[16:6]/5h[16:6],,,,,,,,
{36}15,84,73,62,15,8,7,6,5,4,,,,,,,,,
{32}1,2,3,4,,,5xh[16:2]/4xh[16:2],,,,,,6x/3x,,,,5,6,7,8,,,8xh[16:2]/1xh[16:2],,,,,,7x/2x,,,,1,2,3,4,,,5xh[16:2]/4xh[16:2],,,,,,6x/3x,,,,75,,,,2,,,,34,,,,7,,,,
{16}4h[16:2]/2h[16:2],,,42,,,53,,5h[16:2]/7h[16:2],,,57,,,46,,
{48}2x,3xh[48:11],,,,,,,,,,,7x,6xh[48:11],,,,,,,,,,,
{48}D2,A2,D3,,,,,,,D8,A7,D7,,,,,,,C,,,,,,
{16}5h[16:2]/7h[16:2],,,57,,,46,,4h[16:2]/2h[16:2],,,42,,,53,,6h[16:2]/4h[16:2],,,53,,,72,,63,,8,,63,,1,,3,4,2,6,5,7,3,4,B2,6,5,B7,3,4,2,6,5,7x,6x,5x,4x,3x,2x,1x,
{24}8,1,8,1,8,1,8,1,8,1,,,
{16}54,,,73,,73,,51,,62,,73,,6bxq8<5[16:32]b/2bxq4>1[16:32]b,,7x/3x,,,6bx/2bx,,,,,,,,,,,,,,,,,,,,,,,,,,,,,,,,
