&title=Random(#4: Just Say It)
&artist=Sobrem × Silentroom
&first=0
&des=woxxow
&lv_7=蛸
&inote_7=(132){4},,,Ch[8:6],
{8}8h[384:1],8hh[384:1],8hh[384:1]`8?z4[8:2],8hh[384:1],,,,,,,,,,,,,,,,,,,{32}3h[96:1]/7h[96:1],,,,,3h[96:1]/7h[96:1],,,{96},,,,,,,,,,,,,,,,
2h[128:3]/6h[128:3],,,,,,,,,,,,,,,,,,,,
2h[128:3]/6h[128:3],,,,,,,,,,,,,,,,,,,,
2h[128:3]/6h[128:3],,,,,,,,,,,,,,,,{8},{384},,,,,,,,
{8}Cf,,1h[384:1]/5h[384:1],1h[192:1]/5h[192:1],1h[96:1]/5h[96:1],2h[64:1]/6h[64:1],2h[128:3]/6h[128:3],2h[32:1]/6h[32:1],2h[128:5]/6h[128:5],3h[64:3]/7h[64:3],
{8}3h[128:7]/7h[128:7],3h[16:1]/7h[16:1],3h[128:9]/7h[128:9],4h[96:7]/8h[96:7],4h[96:7]/8h[96:7],4h[96:7]/8h[96:7],1bh[8:5]/5b,,
,,{328},,,,,,,,,,,,,,,,,,,,,,,,,,,,,,,,,,,,
{16}45,,34,,{96}7`6,,,,,,,34,,,,,{16},{96}2/6,,,,,3h[96:51]/5h[96:51],,,,,,,{16},{96}4,,,,6,,,4,,,,6,,,4,,,,6,,,4,,,,6V47[32:7],,,4,,,,6,,,4,,,,{32}6,,,{16},,,,{24}2,,2,
{16}8h[128:16]`7h[128:15],,5,,6h[128:15]`5h[128:15]`3,,1,,{48}6h[8:1],5h[48:5]`3,,,,,{16}1,,{24}43,,43,7`6,,7`6,
{16}1-7[8:1]*-6[8:1],,,,5V31[32:5]*p1[32:5],,5,,1`8,,,8`7,{96},,,,,,,2,,,,,4,,,,,,,4,,,,,
{16}3h[16:3],4,5,6,3bh[16:3],4h[16:2],5,6,3bh[16:3],4h[16:2],5h[16:1],6,{24}3b,,4,5,,6,
{96}2b/3b,,,,,,,7`6,,,,,{24},,4,{16}7`6,,7`6,,7`6,1h[48:13],{24},,28,,,8h[48:5]/2h[48:5],{16},3bh[16:5]/7b,
{96},,,,5,,,4,,,,,3,,,,2,,,,1,,,,8bh[4:1],,,2,,,1,,,,8,,,,,7,,,,6,,,,,5bh[4:1],,,,,,,7,,,,,6,,,,,,,5,,,,,4bh[4:1],,,,,,,4,,,,,3,,,,,,,2h[96:13],,,,,,,,,,,,,3,,,,
{96}2,,,,1,,,,8,,,,7,,,,,,,7,,,,,3,,,,,,,3,,,,,6,,,,,,,6,,,,,2,,,,,,,2,,,,,5,,,,,,,5,,,,,1,,,,,,,1-5[96:41],,,,,,,,,,,,,,,,,
{8}8,2,8`7,32,7`6,43,5h[8:1],,
{8},3h[384:1]/7h[384:1],4h[192:1]/8h[192:1],1h[96:1]/5h[96:1],2h[64:1]/6h[64:1],3h[128:3]/7h[128:3],4h[32:1]/8h[32:1],1h[128:5]/3xh[128:5],
{8}2h[64:3]/4xh[64:3],3h[128:7]/5xh[128:7],4h[16:1]/6xh[16:1],5h[96:7]/7xh[96:7],6h[96:7]/8xh[96:7],1bxh[96:7]/2h[96:7],3bxh[96:7]/4h[96:7],5bxh[96:7]/6xh[96:7],
{8}7bxh[96:7]/8xh[96:7],1bxh[96:7]/3xh[96:7],5bxh[96:7]/7xh[96:7],2bxh[96:7]/4xh[96:7],6bxh[96:7]/8xh[96:7],2bxh[96:7]/3bxh[96:7],6bx-8-4-2[64:23]/7bx,,
{128},,,,,,,,,,,,,,,,,,,,,,,,,C,,,B4,,,A4,,,,,,E4,,,E3,,,A2/D3,,,,,,,,,,,,,,,,,,,,,,,,,,,,,,,,,,,,,,,,,,,,,,,,,,,,,,,,,,,,,,,,,,,,,,,,,,,,,,,,,,
