&title=SAMBISTA
&artist=DOT96
&first=-0.23
&des=-8lufs
&lv_5=13+
&inote_5=(152)
{16},,,,,,,,,,,,,,,,3b,,,6,5,,8,,2,5,,6,4,,8,,1,4,,6,,,8,,2,,3,5,4,,8,,7,7,,3,4,,2,,6,2,,4,1,,2,,3,,,4,,,5,,6,,7,,8,,1,2,3b,,,,,,,,,,6b,,,1b,,,4b,,,,,,,,,,1b,6b,,1b/8b,,,
{48}2,3,4,5,E2,E3,E4,E5,,1bx,,,,,,6x,,,,8,,,,,7b,,,,,,
{24}2,3,4,5bh[8:1],,,8,7,6,
{16}5b,1,,1,5,1,,5,1,,5,1,,5,1,,7b,,2,2,,,8,7,,,3,4,3,,7,5h[6:1],,,1,2,1,,8,6,8,,3,,4,,,,2,,4,5,,,7,6,,,3,4,3,,7,8,6,,1,,4,,8,,6b,,
{24}3,4,5,4,,,6,5,4,
{16}5,,,2,,,7,8,,,3,5,1,,7,2,5,,1,,6,,5,,2,,4,,8,,,,2,,,6,,,3,3,,,8,8,8,,4,4,
{32}5,,1,,,,1,,,,1,,,,1,,1b,,,,5,,5,,,,2,,2,,,,
{16}7b,,,,53,,1,,8,,4,,53,,8,,7,,4,,53,,1,,8,,4,,53,,8,,7,,4,,53,,1,,8,,4,,53,,8,,7,,4,,53,,1,2,1,,7,5,7,,3,,1b,,,,64,,8,,1,,5,,64,,1,,2,,5,,64,,8,,1,,5,,64,,1,,2,,5,,64,,8,,1,,5,,64,,7h[1:1],,2,,5,,1,,3,,6,,2,,8,,,,3,,,6,,,3,,6,,,3,,,3,,3,,,6,,,3,,6,,6,,3,,,,
{32}5/3h[4:7],6h,,,,,,,5,6h,,,6,5h,,,,,,,5,6h,,,6,5h,,,5,6h,,,6,5h,,,,,4,,,,,,5,6h,,,,,,,5,6h,,,6,5h,,,,,,,
{16}3,,6,,3,6,6,6,,3,,,3,,6,,3,,6,,3,3,,6,,,3,6,3,6,3,,
{32}5/3h[4:7],6h,,,,,6,5h,,,,,5,6h,,,,,,,5,6h,,,6,5h,,,5,6h,,,6,5h,,,5,6h,,,,,,,5,6h,,,,,,,5,6h,,,6,5h,,,,,,,
{16}3,3,,6,6,,6,,3,3,6,6,3,6,3,,6,3,,6,3,6,6,,3,3,6,6,3,3,6,,
{32}3,4,,,6,,5,,6,,,,3,,4,,3,,,,6,,6,,5,,,,,,,,5/3h[4:3],6h,,,6,5h,,,5,6h,,,6,5h,,,
5,6h,,,6,5h,,,4x,,,,
{24}3,3,3,3,,,6,6,6,6,,,3,3,3,3,,,
{16}3,6,3,3,6,,3,3,6,3,6,6,3,6,,,6,,3,,
{24}6,5,6,5,,,3,4,3,4,,,6,5,6,5,,,6,,,
{16}3,3,5,4,5,1,,1,,1,,1,5,1,5,1,,5,1,,
7,3,,3,,3,,3,7,3,7,3,,7,3,,
6,2,,2,,2,,2,6,2,6,2,,6,2,,
8,4,,4,,4,,4,8,4,8,4,,8,4,,7,,,7,,,7,,3,,,3,,,3,,5,,,5,,,5,,1,,,1,,,1,,4,,,4,,,4,,8,,1,8,,1,8,,1,8,,1,8,,1,8,,1,8,,1,8,,1,7h[8:7],,2,,5,,8,,3,,6,,1,,,,
{16}7b,,,,53,,1,,8,,4,,53,,8,,7,,4,,53,,1,,8,,4,,53,,8,,7,,4,,53,,1,,8,,4,,53,,8,,7,,4,,53,,1,2,1,,7,5,7,,3,,1b,,,,64,,8,,1,,5,,64,,1,,2,,5,,64,,8,,1,,5,,64,,1,,2,,5,,64,,8,,1,,5,,64,,1,,2,,5,,2,,5,,2,,2,,5,,,,5b,,7,7,4,,2,2,6,,8,8,5,,3,3,6,,7,7,1,,2,2,4,,5,5,3,,2,2,8,,7,6,2,,1,2,7,,8,7,4,,3,2,6,,5,6,2,,3,4,1,,8,7,2,,3,3,6b,,,,,,,,,,1b,,,4b,,,7b,,,,,,,,,,1b,8b,,2b,,,
{48}2,3,4,5,E2,E3,E4,E5,,,,,
{16}7x,5x,6x,2,4,3,3,,7,,1,,3,5,4,6,2,8,1,7,
{48}E6,B5,B4,E4,,,A5,D5,A4,D4,,,E4,B4,B5,E6,,,A4,D5,A5,D6,,,E4,B3,B2,E2,
