&title=お呪い
&artist=なきそ
&first=-1.57
&des=Kaonashi
&des_5=Kaonashi
&lv_5=13+
&inote_5=(230){4},{8},,,,,,,,,,,,,,5h[4:3],
,,4,,,3h[8:1],6h[8:5],
,,{4}2,{8}1-4[8:1],7h[8:1],{4}1,
{2}8V63[1:1],{4}2h[24:1],{8}3,3,
{4}3V16[1:1],4,{8}3h[24:1],4,{4}4,
{8}6V41[1:1],,,1,{4}2h[24:1],{8}1,1,
{4}1V74[1:1],4,{8}3h[24:1],4,{4}4,
{8}4V27[1:1],,,1,{4}2h[24:1],{8}1,1,
{4}7<3[1:1],3,{8},3,{4}3,
{8}3>5[2:3],,,4h[8:1],,,{4}3h[8:1],
,,{2}2h[8:1],
{4}1h[8:1]/6pp1[8:5],2h[8:1],3h[8:1],4h[8:1],
5h[8:1]/2pp5[8:5],6h[8:1],7h[8:1],8h[8:1],
7h[8:1]/2qq7[8:5],6h[8:1],5h[8:1],4h[8:1],
3h[8:1]/6qq3[8:5],2h[8:1],1h[8:1],8h[8:1],
5/1h[8:1],6/2h[8:1],{8}7/3h[8:1],,,4h[4:1],
,6h[8:1],2h[8:1],8h[8:1],{4}1,5/1-4[8:1],
7/1-6[8:1],3/1-3[8:1],8/1-5[8:1],2/1>4[8:1],
7/1-6[8:1],2/1-3[8:1],7/1<6[8:1],{24}4-7[8:1],3,{6}2,
{4}2/4-1[8:1],6/4-6[8:1],2/4-8[8:1],5/4<7[8:1],
2/4>1[8:1],5/4-7[8:1],3/4-1[8:1],4/8-6[8:1],
8/2-4[8:1],2/5-1[8:1],5/3-7[8:1],3/6-4[8:1],
6/2-8[8:1],2/7-3[8:1],7/1-5[8:1],1/5,
{2}8>3[8:1]/7<4[8:1],2>5[8:1]/1<6[8:1],
8qq6[8:1]/4qq2[8:1],{4}5/1-4[8:1],1/8-5[8:1],
2/8-3[8:1],6/8-6[8:1],1/8-4[8:1],7/8<5[8:1],
2/8-3[8:1],7/8-6[8:1],2/8>3[8:1],{24}5-2[8:1],6,{6}7,
{4}7/5-8[8:1],3/5-3[8:1],7/5-1[8:1],4/5>2[8:1],
7/5<8[8:1],4/5-2[8:1],6/5-1[8:1],5/1w5[8:1],
,,5-7[8:1]/1-3[8:1],5>2[8:1]/1<6[8:1],
{2}1/5,{4}2-6[8:1]*-6[8:1],6h[8:1],
{2}3h[2:1],{4}4,{8}3h[8:1],4,
,,{4}3h[4:1],{8}4,3,{4}3h[4:1],
{2}5h[2:1],{4}2,{8}5h[8:1],2,
,,{4}5h[4:1],{8}2,5,{4}5h[4:1],
{2}1h[2:1],{4}6,{8}1h[8:1],6,
,,{4}1h[4:1],{8}6,1,{4}1h[4:1],
{2}7h[2:1],{4}8,{8}7h[8:1],8,
,,{4}7h[4:1],{8}8,7,,,{4}2>5[8:1],
2/8h[4:1],1>4[8:1],1/7h[4:1],
8>3[8:1],8/6h[4:1],7>2[8:1],7/5h[4:1],
7<4[8:1],7/1h[4:1],8<5[8:1],8/2h[4:1],
1<6[8:1],1/3h[4:1],2<7[8:1],2/4h[4:1],
2>5[8:1],2/5h[4:1],1>4[8:1],1/4h[4:1],
8>3[8:1],8/3h[4:1],7>2[8:1],7/2h[4:1],
7<4[8:1],7/4h[4:1],8<5[8:1],8/5h[4:1],
1<6[8:1],1/6h[4:1],2<7[8:1],2/7h[4:1],
1-5[8:1],1/3-8[8:1],3/2>5[8:1],2/5,
8-4[8:1],8/6-1[8:1],6/7<4[8:1],7/4,
2-5[8:1]/4-7[8:1],4/2,{8}8-4[8:1],7-3[8:1],8-2[8:1],7<4[8:1],
8,7,,,1/5,2/6,{4}3-6[8:1]/7v2[8:1],
3/7,1/5,{8}4/8,3/7,{4}2v4[8:1]/6pp8[8:1],
2/6,7/3>1[4:1],{8}7,6,{4}5,
8v3[8:1]/4-7[8:1],4/8,4-1[8:1]/5v8[8:1],4/5<3[4:3],
{8}2,3,4,5,,,,,{4}6h[4:1],
7-4[8:1],7/1-5[8:1],1/2,
3h[4:1],2-5[8:1],2/8-4[8:1],7/8,
7-4[8:1]/5-2[8:1],5/7,{8}1-5[8:1],2-6[8:1],1-7[8:1],2>5[8:1],
1,2,,,{4}7/1-6[8:1],1/2-5[8:1],
2/4-8[8:1],4/6-3[8:1],6/7-2[8:1],7/8-5[8:1],
8/1-4[8:1],1/2-7[8:1],2/3-6[8:1],3/6,
7/3h[8:1],6/2h[8:1],{8}5/1h[8:1],,,6h[4:1],
,4h[8:1],8h[8:1],2h[8:1],{4}1,4/8-5[8:1],
2/8-3[8:1],6/8-6[8:1],1/8-4[8:1],7/8<5[8:1],
2/8-3[8:1],7/8-6[8:1],2/8>3[8:1],{24}5-2[8:1],6,{6}7,
{4}7/5-8[8:1],3/5-3[8:1],7/5-1[8:1],4/5>2[8:1],
7/5<8[8:1],4/5-2[8:1],6/5-8[8:1],5/1-3[8:1],
1/7-5[8:1],7/4-8[8:1],4/6-2[8:1],6/3-5[8:1],
3/7-1[8:1],7/2-6[8:1],2/8-4[8:1],8/4,
{2}8<5[8:1]/1>4[8:1],1s5[8:1]/8z4[8:1],
2v3[8:1]/6v7[8:1],{4}4/8-5[8:1],8/1-4[8:1],
7/1-6[8:1],3/1-3[8:1],8/1-5[8:1],2/1>4[8:1],
7/1-6[8:1],2/1-3[8:1],7/1<6[8:1],{24}4-7[8:1],3,{6}2,
{4}2/4-1[8:1],6/4-6[8:1],2/4-8[8:1],5/4<7[8:1],
2/4>1[8:1],5/4-7[8:1],3/4-8[8:1],4/8w4[8:1],
,,4p8[8:1]/8p4[8:1],4<7[8:1]/8>3[8:1],
,,,,{1}4p1[8:47],
5h[24:1],
3h[24:1],
6h[24:1],
2h[24:1],
7h[24:1],
8h[24:1],
{4},,4-7[8:1]/5-2[8:1],5/4,
1-3[8:1]/8-4[8:1],1/8,1-5[8:1]/8-6[8:1],1/8,
1>3[8:1]/8q4[8:1],8/1,1p5[8:1]/8<6[8:1],1/8,
1-3[8:1]/8-3[8:1],1-6[8:1]/8-6[8:1],1>3[8:1]/8v3[8:1],1v6[8:1]/8<6[8:1],
1>4[8:1]/8q4[8:1],1p5[8:1]/8<5[8:1],1s5[8:1]/8z4[8:1],8/1-3[8:1],
8h[8:1]/1-5[8:1],8h[8:1]/1-4[8:1],8h[8:1]/1-6[8:1],1/8-4[8:1],
1h[8:1]/8-6[8:1],1h[8:1]/8-3[8:1],1h[8:1]/8-5[8:1],8/1-5[8:1],
1/2-6[8:1],2/3-7[8:1],3/4-8[8:1],4/5-1[8:1],
5/6-2[8:1],6/7-3[8:1],7/8-4[8:1],8/1q5[8:1],
1/8p4[8:1],8/1>4[8:1],1/8<5[8:1],8/1v6[8:1],
1/8v3[8:1],8/1-3[8:1],1/5<8[8:1],{24}4q8[8:1],3,2,1,,,{4}4/5p1[8:1],
5/4>1[8:1],4/5<8[8:1],5/4v7[8:1],
4/5v2[8:1],5/4-2[8:1],4/5-7[8:1],5/1v4[8:1],
{24}1b/8v5[8:1],7,{12}6,{24},,8b/1p4[8:1],2,{6}3,{24}1b/8q5[8:1],7,{12}6,{24},,8b<5[8:1]/1p5[8:1],2,{6}3,
{4}1b/8b,1>4[8:1]/8q4[8:1],1b/8b,1/8v5[8:1],
{24}8b/1v4[8:1],2,{12}3,{24},,1b/8q5[8:1],7,{6}6,{24}8b/1p4[8:1],2,{12}3,{24},,1b>4[8:1]/8q4[8:1],7,{6}6,
{4}8b/1b,8<5[8:1]/1p5[8:1],8b/1b,1-5[8:17],
8h[24:1],2h[24:1],7h[24:1],3h[24:1],
,,1-5[8:1],1,
{2}8h[2:1],{4}7,{8}8h[8:1],7,
,,{4}8h[4:1],{8}7,8,{4}8h[4:1],
{2}6h[2:1],{4}1,{8}6h[8:1],1,
,,{4}6h[4:1],{8}1,6,{4}6h[4:1],
{2}2h[2:1],{4}5,{8}2h[8:1],5,
,,{4}2h[4:1],{8}5,2,{4}2h[4:1],
{2}4h[2:1],{4}3,{8}4h[8:1],3,
,,{4}4h[4:1],{8}3-7[8:1],4,{4}3,
E
