&title=回る空うさぎ
&artist=Orangestar feat.初音ミク
&first=0
&des=RkNcoon
&lv_6=12
&inote_6=(120)
{1},,
{2}4>2[8:1],1<7[8:1],6>4[8:1],3-7[8:1],
{2}1>3[8:1],4<6[8:1],7>1[8:1],2pp4[8:1]*qq8[8:1],
{4}6h[2:1],8,4h[1:1],8,E6/D6,E7/D7,E8/D8,
{8},5,
{4}3h[2:1],1,5h[1:1],1,E4/D4,E3/D3,E2/D2,
{8},5,6h[8:3],8,1,2,3h[8:3],1,8,7,6h[8:3],5,4,3,2h[8:3],1,8,7,
{8}3h[8:3],1,8,7,6h[8:3],8,1,2,3h[8:3],4,5,6,7h[8:3],8,1,2,
{8}7x-4[8:1]/8x,1,2,3,7x<4[8:1]/8x,1,2,3,
{8}2x-5[8:1]/1x,8,7,6,2x>5[8:1]/1x,8,7,6,
{8}6x-1[8:1]/5x,4,3,2,6xv1[8:1]/5x,4,3,2,3x-8[8:1]/4x,5,6,7,3xv8[8:1]/4x,5,6,7,
{4}1q3<6[1:1],,C,,B5,7x,2x,3x,
{4}8p6>3[1:1],,C,,B4,2bx,7bx,6bx,
{8}1>6[4:1],1,6,7,8<3[4:1],8,3,2,1q5[8:1],1,6,7,8p4[8:1],8,3,2,
{4}1-5[4:1],5<8[4:1],8V24-6[8:3],{8},7h[4:1],,,1,2,3b/7b,,2,1,
{8}8<3[4:1],8,3,2,1>6[4:1],1,6,7,8p4[8:1],8,3,2,1q5[8:1],1,6,7,
{4}8-4[4:1],4>1[4:1],1V75-3[8:3],{8},2h[4:1],,,8,7,
{4}6bxh[4:1]/2bx,5h[4:1],4h[4:1],3h[4:1],2h[4:1],1-5[4:3],
{8}B8,B2,B7,B3,B6,,B4,,
{4}6h[4:1],7h[4:1],8-4[1:1],,8x,,8x,,
{8}2,3,4,25,3,4,5,36,4,5,6,47,5,6,7,58,
{8}3,2,1,38,2,1,8,27,1,8,7,16,8,7,6,5,
{8}4-8>3[4:1],4,7,6,5-1<6[4:1],5,2,3,
{8}4q1^3[4:1],4,7,6,5p8^6[4:1],5,2,3,
{4}4v1[4:1],1-5>7[8:5],6,{8},6h[4:1],,,4,3,2b/6b,,
{8}3,4,5-1<6[4:1],5,2,3,4-8>3[4:1],4,7,6,
{8}5p8^6[4:1],5,2,3,4q1^3[4:1],4,7,6,
{4}5v8[4:1],8-4<2[8:5],3,{8},3h[4:1],,,5,6,7b/3b,,
{8}6,5,4bx/2bx,3,2,1,2bx/8bx,1,8,7,6bx/8bx,7,6,5,6bx/4bx,5,4,3,
{4}2bx-6[8:1]/6bx,2bx/8bx-4[8:1],8bx/4bxqq4b[4:1]*pp4b[4:1],,,
{8}53,26,17,,
{8}3,4,5bx/7bx,6,7,8,7bx/1bx,8,1,2,3bx/1bx,2,3,4,3bx/5bx,4,5,6,
{4}7bx-3[8:1]/3bx,7bx/1bx-5[8:1],1bx/5bxpp5[4:1]*qq5[4:1],,,
{8}46,73,82,,
{4}1-5[1:1],B2,B8,B4,B6,,
{8}1,7,8,,
{4}8-4[1:1],B7,B1,B5,B3,E2,C,B6/B5,,
{8}6h[4:1],5,4,3,5h[4:1],4,3,2,4h[4:1],3,2,1,3h[4:1],2,1,8,
{8}3h[4:1],4,5,6,4h[4:1],5,6,7,5h[4:1],6,7,8,6h[4:1],7,8,1,
{4}3-5[8:1],7-1[8:1],4-6[8:1],8-2[8:1],5-7[8:1],1-3[8:1],6-8[8:1],2-4[8:1],
{4}6-4[8:1],2-8[8:1],5-3[8:1],1-7[8:1],4-2[8:1],8-6[8:1],3-8[4:3],7-4[2:1],
{1},,E
