&title=HAT TRICK
&artist=P*Light
&des=伊甸之城魔导书
&first=0
&lv_5=12+
&inote_5=(150){4},,{8},
{8}4b/5,4/5b,3,45,6,45,2,45,1-6[8:1],,1-5[8:1]/6,,1-4[8:1]/5,,,,
{8}35,35,1,46,8,35,1,46,18,34,1>5[7:1]*<5[7:1]/8,5-1[6:1]/6,,,8b,,
{8}3b/5,3,3,3b/7,3,3,57,45,2b/4,2,2,2b/6,2,2,57,46,
{12}1b/5b,26,37,4b/8b,,,3b/7b,26,15,4b<8[8:1]/8b>4[8:1],,,4/8-4[8:1],,,
,,,
{16}2-6[8:1],1,2,1,
2b,,,,
{4}4qq1[1:1]/8,,,,
1qq6[1:1],,,,
6qq3[1:1],,,,
2q7[2:1],,,8b,
{16}
46,46,,35,,46,46,,
1-5[8:1],,,,1b/8,,,,
47,47,,36,,25,25,,
1-5[8:1],,8,,1b/7,,,,
34,34,,46,,35,35,,
1-5[8:1],8,1,8,1b,,,,
27,27,,36,,45,45,,
{32}4,5,6,7,8,1,2,3,{4}4b,
{16}2,8,,28,,2,8,,
3,4,,34,,3,4,,
5,6,,56,,5,6,,
1-3[8:1]/7,,,,17,,6,,
5,4,7,,
4,5,2,,
6,4,8,,
4,5,3,6,
{4}2-5[8:1]/7,2/7-3[8:1]*-1[8:1],7,1b/8b,
{16}1b/6,,,8,7,8,7,,
2b/6,,,1,8,1,8,,
3b/7,,,5,4,5,4,,
4b/7,,,6,5,6,5,,
1b,5,5,5,
2b,6,6,6,
3b,7,7,7,
4b,8,8,8,
{8}1>5[8:2],5V72[8:3],6v3[8:2],,
,,,,
{4}1b^6[8:1],1b^4[8:1]/2,1bw5[8:1]/5,,
{16}2,8,,3,5,4,6,,
1,7,,
4,6,3,5,,
2,8,,37,,4,6,,
3/7-3[8:1],,,,
{8}1v6[8:1]/7,2,1/7v4[8:1]*q3[8:1],,7,,
{16}2,6,,45,,1,7,,
2,4,2,5,2-6[8:1],,6,,{4}2-4[12:1]*-8[12:1],,
{16}5,7,,4,6,2,8,,
5,7,,4,6,2,8,,
5,7,,46,,3,5,,
2-6[8:1]/8,,,,
8^5[12:1],,7,,8^3[12:1],3,2,,8,6,7,,
65,65,,53,,64,64,,
2-5[8:1],1,2,8,2,,6,,
{12}1b/8b,2b/7b,3b/6b,4b/5b,,,
{16}2^5[12:1],3,,28,,6,7,8,12,,3,,24,,35,,
7^4[12:1],6,,71,,3,2,1,
6-1[12:1],5,6,4,6,
,
2,3,4/6p1[12:1],57,,8b,,8,7,6,5/3-7[12:1],42,,1b,,
1,2,3,5,4,6,4,7-3[8:1],,3,,7-5[12:1]*-1[12:1],,,,{4},
{16}17,17,,26,,35,3h[2:1]/5,,
4,5,,2,,8,7,,
24,24,,35,,46,46,,
1b,1,1b,1,1b,,,,
5/1v4[8:1],,,7/1-6[12:1],,,13,,
{32}2,,,,82,3,4,5,
8,,,,82,7,6,5,{16}3,4,3,4,3,,8,,6/5-8[8:1]*-2[8:1],,,,{4},3b/7b,,,,
{4}1b/8,{8}24,3,46,5,68,7,{16}2,4,2,5,2,6,3,,6,2,4,,1,5,3,,{16}2h[16:1]/8h[16:1],,,2h[16:1]/8h[16:1],,,2/8h[16:1],,
{8},4h[16:1],5h[16:1],6,{16}7h[16:1]/1h[16:1],,,7h[16:1]/1h[16:1],,,7/1h[16:1],,{8}6h[16:1],5h[16:1],4h[16:1],3,{4}2b/8b,
{8}75,6,53,4,31,2,{16}1,8,1,7,1,6,1,5,
8,4,1,5,2,6,3,7,{8}48,47,46,45,85,84,83,82,{16}1,7,3,5,2-6[4:1],8,4,6,{4},,
{4}1h[4:11],3,,3,,3,,3,,3,,3,1-5[8:2],,1-5[8:1],1b,
{16}1b/8,,,3,4,5,6,,
2b/1,,,3,4,5,6,,
3b/4,,,1,8,7,6,,
4b/5,,,1,8,7,6,,
1b,5,5,5,
2b,6,6,6,
3b,7,7,7,
4b,8,8,8,
{8}1V35[8:2],5<2[8:3],6v3[8:2],,
,,,,
{4}1b-6[8:1],8b-3[8:1]/1,1b^4[8:1]/8^5[8:1],1/8b,
{8}2b/7b,,,,4b/5b,,,,1/7b,4,8/2b,5,1-5[8:1]/7b,4,1b/5,,
{16}2^5[12:1],1,,28,,6,7,8,12,,3,,24,,35,,
7^4[12:1],8,,71,,3,2,1,
6-1[12:1],5,7,4,6,
,
2,3,4/6p1[12:1],57,,8b,,8,7,6,5/3-7[12:1],42,,1b,,
1,2,3,5,4,6,4,7-3[8:1],,3,,7v5[12:1]*v1[12:1],,,,{4},
{16}86,86,,1,7,3,5,,86,68,,1,7,3,5,,
28,28,,17,,3,5,,1/7-3[8:1],,,,17,,2,,
1>5[8:1],,,8v3[12:1]/1,,,28,,
{32}1,,,,61,2,3,4,
8,,,,83,7,6,5,{16}1,8,2,7,1,,18,,{32}72,3,4,5,6,7,8,1,2-6[8:1],3,4,5,6,7,8,1,{4}2/5b,,e
