&title=永遠に咲く花
&artist=AiRI
&first=0
&des=
&des_5=Q
&des_6=
&lv_5=13
&lv_6=1
&inote_5=(95){4},{8},,,,,,2<5<2[8:5],
,,5h[8:3],{16},,,,,,,,6<3>6[8:5],
,,6,,,{8}3h[8:3],,,,,6>1>6[8:5],
,,1h[8:3],{16},,,,,,,,1<4<1[8:5],
,,1,,,{8}4h[8:3],,,,,6-8-2-4[8:5],
,,5h[8:3],{16},,,,,,,,3-1-7-5[8:5],
,,3,,,{8}4h[8:3],,,,,3q8q6[2:1],
,,C,{16},,,,,,,,6/2,
,,6qq3[16:7]/2qq7[16:7],,,{8}2/6,,,,,6pp5[8:3],
4h[8:1],6,3h[4:1],,,,3,
{16}4qq5[8:3],,,7h[16:3],,,,,,,,,{8}7,7qq4[8:3],
,,4>7[16:5],4,{16},,,,,,,,6/4h[16:3],
,,3h[16:3],,,{8}1h[8:3],,,,,2qq3[16:5],
5h[8:1],2,6h[16:3],,,,6,
{16}3/7pp6[8:3],,,4h[16:3],,,,,,,{8}1,2,{16}3,3-5-2[16:3],
,1x,{8}1x,{16},,8,8-5-7[16:3],,,{8}4,,4q1[4:1],
{1}5,
{8}7bx/1bxpp5[8:3],6,1,6h[16:1],{16},7,{8}8,2/8qq4[8:3],3,
8,3h[16:1],{16},2,{8}1,,6,5,5pp1[8:3],
,,1<4[4:1],1,{16},,,,,,4x,3,
{8}2v7[8:1],{16}5,5,,6,{8}6>5>4>3>2<1[4:1],,,,,6-8[8:1],
6,8,{16}1,2>4[8:1],,6,{8}6,{16},,7,7h[16:1],
{8}5,{16}3>8[8:1],7h[8:1],,,{8}3,,8x,7/1,{16}6,6-8-5[16:3],
,2,{8}2,{16},,3,3-5-2[16:3],,,{8}6,,7,
7v5[8:1],{16},,,,1x,2x,{8}3x,4xh[8:1],5x,4xh[4:1]/3x-1-7-5<3[8:5],
,,,,,,,5xh[8:1]/6xqq4qq2qq8qq6[0.6316##1.8947],
,,4xh[#0.3157883],,{4}3xh[8:1],2xh[8:1],
{8}6x,6/4,1,5/2,7,8/3<3[4:1],,,,,4x/7xh[8:1],
2,3/5h[8:1],1,8/2h[8:1],7,
6/4,5/2,{16}1,8-4[8:1],1,1,,,{8}2v5[8:1],1,2,
6bx,6,6,6,6/4,6/3,6/2,1/6,
{16}8b,7b/1b,,2b,{8}1b/3b,8-5[16:3]`1-4[16:3],,,,,E7/A7/D8/B6f/B3f/E3/A2/D2,
{16},,,,2x-4-6[8:1]/1x-3-5[8:1],8x/7x,{2}5x-7-1[8:1]/6x-8-2[8:1],
{8}7x/1x-5[12:1],8,1/7-3[12:1],8,7/4-1[12:1],5,4/6>1[4:1],7,
6,,,8-5[8:1],,,,4bx/6bx,
7bx/3bx,8bx/2bx,1,1h[8:1],2h[8:1],3h[8:1],4h[8:1],5,
4-1[32:3]/5-8[32:3],6/3,{4}Cf/5b>5[4:1],{16},,,,,,1x,8<5[8:1],
2/7,,,8/3,,,4,3>8>3[4:1],,,{8}8,,,,8<4[8:1],
{16}2,1,2/8,3,,,{8}3-8[12:1]/4-7[12:1],5/2,4/3,
,1>5[8:1],{16}7,8,7/1,6,,,{8}6-1[12:1]/5-2[12:1],4/7,5/6,
{4}8x/3x,8b-6[8:1]*-5[8:1],8b-4[8:1]*-3[8:1],8b<2[2:1],
{1}8b,
{16}5b/3b,,,6/2,,,1/7,7v4[48:7]/1v4[48:7],,,,,,,,,{8}3bx/4bx,
5bx/6bx,7bx/8bx,{16}2bxpp5[4:1]/1bxp6[4:1],2bx/1bx,,,,,,,,,6/4,
,,7/3,,,2/8,8v5[0.6316##0.3684]/2v5[0.6316##0.3684],,,,,,,,,{8}6bx/5bx,
3bx/4bx,2bx/1bx,{16}8bxq3[4:1]/7bxqq4[4:1],8bx/7bx,,,,,,,,,6/2,
,,7/3,,,8/4,8qq8[32:7]/4qq4[32:7],,,,,,,,,{8}5bx/3bx,
6bx/3bx,7bx/4bx,{16}7bxqq8[4:1]/1bxpp8[4:1],7bx/1bx,,,,,,,,,7/3,
,,6/2,,,5/1,5pp5[32:7]/1pp1[32:7],,,,,,,,,{8}2bx/8bx,
2bx/7bx,6bx/1bx,4bx/5bxpp5[16:3]*qq5[16:3],,,,,{1}4bq5[8:13]`5b<4[8:13],
{16},,,,,,,,,,,,,,,,6,
5,6,5,{8}6,{16}3,4,3,4,{8}3,{16}6,6,1,1,
8,7,8,7,{8}8,{16}2,1,2,1,{8}2,{16}1,8,2p1[4:3],7q8[16:11],
E
&inote_6=(95){1},,,,,,,,,,,,,,,,,,,,,,,,,,,,,,,,,{8}4,
{16}4,4,4x,,,3,,3,,,3,3,
E
