&title=IRIS OUT
&artist=米津玄師
&first=0.68
&des=鸠
&lv_5=13+
&inote_5=(135)
{4},,,,E5h[4:3],,,C,
{24}3x-5[10:1]/5x,,,2,,,35,,,6,,,7,,7,5-3[10:1],,,48,,,65,,,
7,,,2/8,,,37,,3h[8:1]/7h[8:1],,,,,,6,5,,4,5,,,35,,,
{24}6x-4[10:1]/4x,,,7,,,64,,,3,,,2,,2,4-6[10:1],,,51,,,34,,,
2,,,3/7,,,6,,4,,,3/7<3[7:1],3-7[9:1]/7,,,2h/8h,,,,,,,,,
{24}1x-5[8:1]/5x,,,3,,,51,,,7,,,6,,6,5-1[9:1],,,37,,,56,,,
7,,,26,,,17,,7h[8:1]/1h[8:1],,,,,,2,4,,5,4,,,62,,,
{24}8x-4[8:1]/4x,,,6,,,48,,,2,,,3,,3,4-8[9:1],,,62,,,43,,,
1,,1,8,,8,7,,7qq5[6:1],6,,6,5^6-2[6:1],,,,,,,,,,,,
3,,,3,,,3/C,,,3,,6,3,,,5,,,4h[8:1]/2h[8:1],,,,,,
4,,,4,,E1,4,,,4,,1,4,,,2,,,3h[8:1]/5h[8:1],,,,,,
3,,,3,,E7,3,,,3,,,34,,,2,,,2h[8:1]/8h[8:1],,,,,,
8,,,8,,E5,8,,,8,,,38,,,2xh[4:1],,,{48}E7,B6,E6,D6,A5,,{24},,,
1,,,1,,,16,,,6,,4,6-4[11:1],,,37,,,2h[8:1],,,,,,
2,,,2,,4,2-8[11:1],,,34,,,2h[64:1],,,6,,,5h[8:1]/8h[8:1],,,,,,
5,,,5,,8,5,,,52,,,{4}4h[8:1],5h[8:1]/6-4[9:1],5-8[8:1]/6,3-7-3[5:1]/5,3qq1[8:1]/7qq5[8:1],{24},,,,,,
2^8[9:1]/6,,,3,,,2/6^4[9:1],,,7,,,26,,,1,,1,3,,,2,,,
2-6[10:1],,,34,,,8,,8h[8:1],,,,,,8,4,,4,6,,,2/6-4[11:1],,,
1x,,,62,,,1x-7[11:1],,,4,,4,1x,,,6,,,6x,,8,7h[8:1],,,1x,,3,5h[8:1],,,4x-1[11:1]*-7[9:1],,6,2,,,E5/A4/E4,,,,,,26,,,,,,
{4}8-5[8:1],E5,8-5[8:1],D7,8-5[8:1],E1,8-5[8:1],D7/A7/A6,
8h[8:1]/5,8h[8:1]/3,{16}8h[8:1]/1,,1,,8-5[8:1]/7,,7,,
{4}5qq3[8:1],8-5[8:1],1s5[8:1],5/1^6[8:1],
{4}3x-7[8:1]/A1f,73,{24}8x/2x,,3,5,,2/6^1[8:1],,,4,4,,,
{4}A7f/3x-5[11:1],31,{24}7x/4x,,6,5,,8h[8:1],,,2,2,,,
{8}3-8[8:1]/7,4,6-2[8:1]/3,5,6/1^4[8:1],8,51,7V58[4:1],5,8-4[8:1],4,1,3h[4:1],,{48}5b-1[9:1],6b,7b,8b,{24},,,,
{4}8x^5[9:1]*^3[9:1]/A5f,8,{16}53,,6,1h[8:1],,4,3,3,7-3[9:1],,8-4[9:1],,7-5[9:1],,8,,7w3[9:1],,,,A7,,,,
{24}3,2,1,8,,,48,,,6,,,6,7,8,1,,,4,3,2,1/8,,,3qq4[4:1]/6,,,,,,E2f,,,,,,7,,7,,,56,,,2,42,,,
{8}1b-6b[9:1],6^1[11:1],1,Cf,5b-2b[9:1],2^5[11:1],5,1,
1b-4b[9:1],4^1[9:1],1,Cf,8bq5b[10:1]*-5b[10:1],8,,,
{8}7b-4b[9:1],4^7[11:1],7,Cf,3b-8b[9:1],8^3[11:1],3,7,
7b-2b[9:1],2^7[9:1],7,Cf,4b,4,{32}6b,5b,6b,,4,,7,,
{24}2xb,,2,1,,,83,,8,5,,,65,,6,4,,4,7,,,65,,,
3,,3,5,,26,,,3,5h[8:1],,,1,,1xh[4:1],,,E4/B3,,,B6/E6,,,1,1x,,,24,,,6,,,71,,,2,,2,1,,1,2,,,83,,,
7,,7,6,,6,5,,5,4,,4,{4}3-6[10:1],,
{16}7xh[16:3],,,,,,75,,5,,,6h[16:3],,,4,,4h[16:3],,,,,,42,,2,4,,43,,4,2,,
{16}1xh[16:3]/5,,,5,,,3,,35,,5,6,,6,2,,2/4h[16:3],,,,,,46,,4,6,,76,,6,1,,
1x-3[11:1],,,1,6-4[11:1],,7,,6,2,2-6[8:1],,53,,2,,
7-1[11:1],,,7,4-6[11:1],,3,,4,8,8-4[8:1],,57,,48,,
{32}3b^6[9:1],2b,{16}1b,,,1-5[10:1],,1,,{32}6b^3[9:1],7b,{16}8b,,,8-4[10:1],,8pp6b[8:5],,
{4},,,,
{24}7x-1[10:1]/3x,,,6,,,7/3^5[9:1],,,2,,,73,,,8,,8,6,,,7,,,
7p3[10:1],,,65,,,1,,1h[8:1],,,,,,1,5,,5,3,,,7/3v4[9:1],,,
8x,,,37,,,8x-2[11:1],,,5,,5,8x,,,3,,,3x,,1,2h[8:1],,,8x,,6,4h[8:1],,,5x-7[11:1]*qq3[9:1],,3,7,,,B5/A5/E6,,,,,,28,,,,,,
{8}7,6h[4:1],4h[2:1],,6h[4:1],,,,
{24}3,,2h[6:1],4h[8:1],,,,,5h[6:1],1h[8:1],,,{8},,51,,
7h[8:1]/3h[8:1],,2h[8:1]/6h[8:1],,51,15,{24}8,,8,6h[2:1],,,{8}E7h[32:1],E5h[32:1],E3h[32:1],E1h[32:1],7x-2[8:1]`6x-3[8:1],,,,
{32}1b<4[16:3],2b,{16}3b,,,{8}3-7[8:1],2,1z5[16:3],,6V42[16:3],,8-6[8:1],,1pp1[32:7],,8>6[4:1],7,6-2[8:1],,
{32}1b,8b,{16}7b-4[8:1],,,{8}3V58[32:7],2,1-4[8:1],,,,E1h[32:1],E3h[32:1],E5h[32:1],E7h[32:1],8-5[8:1]/5-8[8:1],,8z4[16:3]/5,,3h[8:1],,
{24}3,4,5,6,7,8,51,4,3,2,1,8,37,4,5,6,7,8,{16}15,,2,2h[16:3],{24}E5,E4,E3,E2,E1,E8,E7/A4,A3,A2,A1,A8,A7,A6/D5,D4,D3,D2,D1,D8,
D7,D6,D5,D4,D3,D2,{32}A4/D1,E5,B5,C,B1,E1,A8,,
{8}7b,8b,8b,8b-5[8:1],
{4}8z4[8:1],2-6[8:1],5v6-8[7:1],1^4[9:1],
{8}7x-3[8:1]/A1f,,A7f/3,,{24}2x/4x,,1,5,,2^7[9:1]/4,,,5,5,,,
{8}A1f/6x-4[11:1],,2x/A6f,,{24}3x/5x,,2,6,,1h[8:1],,,4,4,,,
{8}2-5[9:1]/5,3,2/7-3[9:1],8,4^1[8:1]/7,5,48,6-1[8:1],1-6[8:1],6qq5[16:3],3,2,1h[4:1],,
{48}5b^2[9:1],6b,7b,8b,{12},,A5f/8x^6[11:1]*p4[8:1],,,A8f/D8/B8,,,
{16}3x/7x,,8,2h[8:1],,1,3,3,7x-5[11:1],,4^2[11:1],,7-1[11:1],,4,,7w3[9:1],,,,A7,,,,
{8}24,3,58,6,34,2,68,4,
3pp2[32:9]/5,,Cf,,{24}8,,8,,,17,,,35,35,,,
{32}3b,4,5,6,7,8,1,2,{24}3,6,4,6,4,6,4,6,4,6,4,6,4,6,4,6,4,6,5,6,5,6,5,6,5,6,5,6,5,6,5,6,5,6,5,6h[6:1],5h[8:1],,,,,,
1x/7x,,2,4,,4,3x,,,52,,,6x-4[11:1],,5,6,,8,6x,,,2,,,2x-6[9:1],,4,2,,7,2x,,,8,,,5x/8x,,,1x/2xh[4:1],,,{32}3b,4b,5b,6b,7b,8b,,,
{24}2x/8x,,,3b/7b,,,7,6,5,4,3,2,14,5,6,7,8,1,26,5,4,3,2,1,
8,,3,4,,6,4,,2,4,,,64,,17,17,,,53,,,26,,,
{32}1b,7,1,7,1,7,1,7,1,7,1,7,1,7,1,7,2,6,2,6,2,6,2,6,3,5,3,5,3,5,3,5,{32}
2,1,8,7,6/1h,5,4,3,2/4h,1,8,7,6/8h,5,4,3,{4}2b-4[11:1]`6b-4[11:1],A4,
