&title=MOBILYS
&artist=Dachs
&first=1.27
&des=えども~ん
&lv_5=14
&lv_6=14
&inote_5=(36){4}6h[8:3],{8}2h[128:31],{16},{32},{64},{128}4,5,
(144){4}6^3[1:1],,,,,,43,1-5[8:1]/5,
{8}8b>4[2:1],,,,7,,,,6h[2:1]/5,,,,1h[4:1],,8h[4:1],,7>3[2:1],,6,,7,,8,,2/1<3[8:5],,,,3,,1-6[8:1],,7h[4:3],,,,6,,5<1[4:1],,3h[4:3],,,,4,,6,,
{2}7<2[2:1]/1,8<3[2:1],1<5[2:1],{8}2,4b,,,
{16}34,,,,2,,,5,3,,3,,13,,,,
{16}24,,,,1,,,4,2,,2,,28,,,,
{16}71,,,,6,,,1,7,,7,,57,,,,
{16}68,,,,5,,,7,5,,5,,46,,3,,
{8}21,2,24,2,38,2,23,2,16,6,65,6,{16}7,8,6,,{8}62,6,
{16}7b,6,5,4,3,2,1,8,3,4,5,6,7s3[8:5],8,1z5[2:1],2,
{1},
{24}5,6,7,{8}8,5^2[2:1],,6,,6,,
{24}5,6,7,{8}8,5^2[2:1],,6,,
{16}6,,,7b,,8b,,,12,,,8b/4b,,2b/6b,,,1,,,8,,,76,,
{4}5h[4:1]/4,{16}3,4,3,4,2^7[6:1],6,3,5,{4}2z6[4:1],,{8}1^4[3:1],,5^8[6:1],6,5-1[6:1],,5,,
{8}6,7p4[3:1],8,,2-6[8:1],,{16}2,,,8,,18,,,2,6,3,5,{4}4<3[2:1]*>5[2:1],,,,
{24}4,3,2,{8}1,4^7[2:1],,3-7[8:1],,3,,
{24}1,2,3,{8}4,1^6[2:1],,2-6[8:1],,2,,
{24}5,4,3,{8}2,5^8[2:1],,1-5[8:1],,1,,
{24}6,5,4,{8}3,47,,{24}8,2,1,{16}3,3,5,,5,,
{16}8,7,8,,1,,7,5,6,5,7,,83,,83,,
{16}1,2,1,,8,,3,4,3,4,2,,16,,16,,
{16}6,5,7,,38,,2,24,,7,75,,27,81,,36,
{1}4bqq1[2:1]/5bpp8[2:1],
{16}2b-6[8:1]/1b,,,2,4^7[8:1],,,4,8,,,2,12,,47,,
{16}8-4[8:1]/3,,,8,5^2[8:1],,,5,1,,,6,68,,45,,
{16}1-6[8:1]/2,,,2,3-8[8:1],,,4,5-2[8:1],,,6,7,,8,,
{16}7-3[8:1],,,7,2-5[8:1],,,2,1,8,7,6,25,,25,,
{16}3/7-3[8:1],,,7,5-1[8:1],,,5,4-8[8:1],,,4,1,,1,,
{16}6/2-6[8:1],,,2,4-8[8:1],,,4,5-1[8:1],,,5,8,,8,,
{16}3/7-3[8:1],,,6,5-1[8:1],,,4,3-7[8:1],,,2,1-5[8:1],,1b,,
{16}6-1[8:1],,,6,2z6[8:1],,,2,7,,8b,,7^4[8:1]/1^4[8:1],,7b/1b,,
{8},,
{4}1bs5[4:13]/8b,,,7,,,,3,,4,,6h[2:1],,,,
{4}7bp4[2:1]/8bq3[2:1],,,,2bq5[2:1]/1bp6[2:1],,,,4b^1[8:1]/5b^8[8:1],4b/5b,4b-1[8:1]/5b-8[8:1],4bp1[1:1]/5bq8[1:1],4b/5b,,,,
(36)
{32},,,,,,,4,
{32}4-1[8:1],,5,,5,,,6,6V41[6:1],,7,,7,,1,,2V41[6:1],,,2,,,2,,8h[8:1],,,,,,,,
{16}3V15[8:1],4,5V73[8:1],,6,5,4,5,
{16}6>2[16:1],2<6[16:1],7,3,4-8[16:1],,
{16}4<3[8:1]*>5[8:1],4,4bw8[16:1]*w8[16:1],,4b,,,,18,27,1V35[16:1]*V35[16:1]/6,5^8[16:1]*^8[16:1]/3,8V64[16:1]*V64[16:1]/1,4^1[16:1]*^1[16:1]/8,1-5[16:5]/6h[4:1],,,,,,,,,,
{32}6,7,8,1,{16}3/4-8[8:4]*-8[2:1],12,65,78,4h[8:4],,,,,,,,
(144)
{4},,4b^1[8:1]/8b^5[8:1],4b/8b,
{16}8bq5[10:1]/7b,,,8,4q1[10:1],,,4,2>7[6:1],,,2,7,,8,,
{16}1p4[10:1],,,1,5p8[10:1],,,5,7<2[6:1],,,7,2,,1,,
{16}8w4[8:1],,,,8,,,,{8}7p3[8:1]/2,1q5[8:1]/6,7q2[8:3],1,
{4}7,,{16}18,,,46,46,,37,,
{16}2-6[12:1]/1,,,2,4>6[32:7],,,5,{8}5-1[8:1],4,3,2,
{16}7-3[12:1]/3,,,7,5<3[32:7],,,4,{8}4-8[8:1],5,6,7,
{16}18,,2,4,3,,7,5,6,3,4,1,6,2,5,8,
{32}6,5,4,3,2,1,8,7,6,5,4,3,2,1,8,7,
{8}4q8[8:1]*p8[8:1],26,,,
{16}2b-5[12:1]/1b,,1,2,7-4[12:1],,8,7,1-5[12:1],,8,1,7,,8,,
{16}7-4[12:1]/3,,1,7,2-5[12:1],,8,2,7-4[12:1],,1,7,2,,1,,
{16}3-8[12:1]/5,,4,3,6-1[12:1],,5,6,4-8[12:1],,5,4,6,,5,,
{16}6-1[12:1]/2,,4,6,3-8[12:1],,5,3,5<3[4:1],,,4,4w8[8:1],,4,,
{8},,,1^4[16:2]/8,,5h[4:1],{24},,,6,7,8z4[8:1],1b/5,,,,,,{16},,3,3,35,,,26,,,17,,
{16}1-6[12:1]/8,,7,1,7-3[12:1],,4,7,4^1[12:1],,5,4,6,,7,,
{16}8-3[12:1]/1,,2,8,2-6[12:1],,5,2,5-1[12:1],,4,5,3,,2,,
{16}1^4[8:1]/5^8[8:1],,48,,15,,,,6p2[8:1]/5q1[8:1],,83,74,65,,,8,,,5^8[8:1]/7,,24,,,1,,,43,,52,6-2[8:1]/3,74,85,
{1}1<1[4:10]*p8[4:10]/6b,,,
{32}4bqq2[4:1]*V68[4:1],,,,
,,,,{4},,18,
{16}5b/7b-4[16:1],,5-1[12:1],7,3,,5b/3,,2-6[16:1],,8-3[12:1]*-5[12:1],2,1,,8b,,,,4b-2[16:1]*-8[16:1],,,4b-1[16:1]*-7[16:1],,,4b-8[16:1]*-6[16:1],,,4bw8[16:1],,,4b,
