&title=Gate One
&artist=aran
&first=0.01
&des=Angolos
&lv_5=14
&inote_5=(180){4},,{2}1s5[8:1],
{1}6x>6>8[4:7],
{2},,,C,
{8}A6,A3,{4}E5,,,3h[4:1],
{8}6,6,{4}4h[4:1],{8}5,4,
6,3,{4}7-2[8:1],{8},,3,4,
{4}5h[4:1],{8}4,4,{4}6h[4:1],{8}3,5,
4,6,{4}1-5[8:1],{16},,,,4/6,3/7,{8}2/8,
{4}1x-4[8:1],{8}1/7,7x-2[8:1],,7/3,{4}3x-1-4-8[8:3],
{8}7xh[4:1],,,6xh[4:1],,,{4}6x,
5x-8[8:1],{8}5/1,1xpp3[8:1],,1/7,{4}7x-5-8-4[8:3],
{8}2xh[4:1],,,3xh[4:1],,,{4}4x,
{8}5x/3x,3,4/6,6,5/2,2,{4}E2/D2/A1/B1/E1/D1,
{8}6x/4x,6,5/3,3,4/7,7,{4}E7/B6/B5/A6/E6/D6/A5,
{16}1x,8,1,8,2,7,2,7,3x,6,3,6,4,5,4,5,
{8}3bxh[8:1],4bxh[8:1],5bxh[8:1],6bxh[8:1],{4}1bs5b[8:1],1/8,
6-3[8:1],2-7[8:1],{2}8z4[8:1]*v5[8:1],
{4}6x/2x,{8}3/7x-4[8:1],4,{4}5x-1[8:1],8x,
{8}2x>4[8:1],1q5[8:1],2,1,8x-4[8:1],7-5[8:1],8,7,
{32}1x>5[8:1],2>6[8:1],{16}3<7[8:1],,,{8}1x,8xw4[8:1],,8x,,6/2-7b[8:1],
,2/5,{4}5<8[8:1],{2}5/1-6[8:1]*-4[8:1],
{4}3x/5x,{8}6x/2x-5[8:1],7,{4}8x-3[8:1],4x,
{8}1x-6[8:1],5-2[8:1],1,5,7x<4[8:1],8>3[8:1],7,8,
E7/B6,B2/E3,B8/E1,B4/E5,{4}6-1[8:1]/3-8[8:1],B8/B1/E1f,
3-6[8:1],7-2[8:1],{2}1s5[8:1]*v4[8:1],
{4}3x/7x,{8}6x/2x-5[8:1],5,{4}4x-8[8:1],1,
{8}7x<5[8:1],8p4[8:1],7,8,1x-5[8:1],2-4[8:1],1,2,
{32}8x<4[8:1],7<3[8:1],{16}6>2[8:1],,,{8}8x,1xw5[8:1],,1x,,3/7,
{4}6/2-4[8:1],2/1,7-5[8:1],7/8,
{8}4x/3x,3,3x/6x,3,5x/6x,6,2x/6x,6,
{16}4,5,3,6,2,7,1,8,2,7,3,6,4,5,3,6,
{32}2,3,4,5,6,7,8,1,2,3,4,5,6,7,8,1,{4}6b/2-6[8:1],8z4[8:1],
{8}8/1,,,3/7-3[8:1],{4}7/3-7[8:1],1,
{8}2h[4:1],6,6h[4:1],4,4h[4:1],8,{4}8b,
{16}3h[8:1]/5h[8:1],,,3h[8:1]/5h[8:1],,,4,6,{4}5-1[8:1],{8}5,{16}8,7,
{8}6-4[8:1],2,{4}3-1[8:1],{8}8qq6[16:3],8-4[8:1],,,{4}7p3[8:1],
2-6-2b[4:1],{2}1q5[8:1],
{8}7h[4:1],3,3h[4:1],5,5h[4:1],1,{4}1b,
6-3[4:1],C,{8}1s5[8:1],{16},,,,6,6,
{8}3>1[8:1],4,5,6>4[8:1],7,8,1<7[8:1],2,
{4}3x-5[8:1],6x-8[8:1],2x-4[8:1],5x-7[8:1],
1x-3[8:1],4x-8[8:1],4-1[8:1],{8}7x,7x,
{4}6x-4[8:1],3x-1[8:1],7x-5[8:1],4x-2[8:1],
8x-6[8:1],5x-1[8:1],5-8[8:1],{16}5,,,3,
3bh[8:1],,,4h[8:1]/7bh[8:1],,,{8}6h[8:1]/5bh[8:1],{16},3h[8:1]/4bh[8:1],,,{4}5b/2b,
{16}3bh[8:1]/8h[8:1],,,4h[8:1]/7bh[8:1],,,{8}6h[8:1]/5bh[8:1],{16},3h[8:1]/4bh[8:1],,,{8}5b/2b,1b/8b,
{16}2,2,,4,{8}4,{16}5,5,,7,{8}7,{16}4,3,2,1,
7,8,7,8,6,1,6,1,{8}5-1[8:1],2-4[8:1],5,2,
{32}7x<7b[4:13],6,{16}5,,,,,,,{2}C,
,C,
,C,
{8},,,,C,6,6,3,
{2}3-6[4:1],C,
{4}7-1[8:1],7/5,{2}B3/E3/B2,
6-3[4:1],C,
{4}1-5[8:1],1/8,{2}Ch[4:1],
2>5[8:1],{4}8h[4:3],6,
,6-2[8:1],{2}6/7,
5h[2:1],{4}1>4[8:1],7h[8:3],
{8},5,{4}5-1[8:1],5/6,7/3,
{2}2h[4:1]/5h[4:1],4h[4:1]/7h[4:1],
3h[4:1]/5h[4:1],4h[4:1]/6h[4:1],
{4}3h[8:1]/5h[8:1],4h[8:1]/6h[8:1],2h[8:1]/5h[8:1],4h[8:1]/7h[8:1],
{8}3/5,3,4/6,6,3/5,2,{32}6,5,4,3,2,1,8,7,
{4}6b/2b-4[8:1],8-6[8:1],1-5[8:1],5-1[8:1],
6-8[8:1],4-2[8:1],{2}1w5[8:1],
{16}2,6,2,6,3,5,3,5,4,6,3,7,2,8,1,7,
{8}6bx/2bx,3bx/7bx,5bx/2bx,4bx/7bx,{4}1bs5b[8:1],1b/8b/C,
6/2-6[8:1],2/7-3[8:1],7/5,{8}4/2,3/1,
{4}2/8-4[8:1],8/1-5[8:1],1/7,{8}3/6,4/5,
{4}3/8<5[8:1],{24}8/4x-7[8:1],3x,2x,1x,,,8x-4b[8:1],1x,2x,3x,,,{8}8/3-6[8:1],3,
,7,4/2,5/7,{4}8q5[8:1]/1p4[8:1],8b/1b,
{8}2>4[8:1]/6<8[8:1],1/5,{4}6/2,{8}7/3,{16}6,4,{8}5,3/7,
{4}6/1>4[8:1],{24}1/5x-2[8:1],6x,7x,8x,,,5/1x-5b[8:1],8x,7x,6x,,,{8}1/8-4[8:1],8,
{4}8/4,{32}5x/1x,2/6,{16}3/7,{32},,,,8x/4x,7/3,{16}6/2,,,{8}2/5,{24}3,4,3,
{4}4-8[8:1],4b,{8}1-6[8:1]*-4[8:1],2/8,{4}1b,
3-6[8:1]/7-4[8:1],7b/3b,{8}2/5,{16}3,3,{8}4/6,7,
{4}3/8<5[8:1],{24}8/4x-7[8:1],3x,2x,1x,,,8x-4b[8:1],1x,2x,3x,,,{8}8/3v6[8:1],3,
{4}3/6,{24}8x/4x,7x/3x,6x/2x,5x/1x,,,1x/5x,2x/6x,3x/7x,4x/8x,,,{8}1/5,7/3,
,5/6,4/3,{24}1,8,1,{8}8,{16}2/7,2/7,{48},,,,,,{24}5,6,4,
{4}5bqq2[4:3],{8}6,6,7,7,8,8,
1qq6[4:3],3,3,3,4,4,4,4,
{16}4,5,4,5,3,6,3,6,2,7,2,7,1,8,1,8,
{1}3bxqq8b[2:1]/7bxqq4b[2:1],
{8}2/7,{24}1,8,1,{8}8,2/7,{32}8/2>6[8:1],3<7[8:1],{16}4<8[8:1],,,{4}2b,
1-5[8:1]*-6[8:1],1,{8}7/4,6/3,{24}5/2,4,3,2,1,8,
{4}7/4,{8}2/6,7,{32}1/7<3[8:1],6>2[8:1],{16}5>1[8:1],,,{4}7b,
8-4[8:1]*-3[8:1],8,{8}5/2,4/7,{4}1/8,
{8}2-6[8:1],7-4[8:1],2,7,1-5[8:1],8-6[8:1],1,8,
{16}3,4,{8}3,2/5,{16}6,5,6,5,{8}6,7/4,7/4,
2-5[8:1],2,7-4[8:1],7,3,3,{32}8-4[8:1],7,6,5,4,3,2,1,
{4}4b/8b,{8}2/6,3/7,{2}4bqq2b[8:1]/8bqq6b[8:1],
{8}3/7,4/5,{24}7,6,5,4,{96},,,,,,,,{32}8<4b[8:1],7<3b[8:1],{16}6>2b[8:1],,,{4}8b,
1q6b[8:1]*p4b[8:1],1,{8}2/5,3/6,{24}4/7,5,6,7,8,1,
{4}2/5,{24}2,3,4,5,{96},,,,,,,,{32}1>5b[8:1],2>6b[8:1],{16}3<7b[8:1],,,{4}1b,
8p3b[8:1]*q5b[8:1],8,{8}4/2,5/7,{4}1/8,
{8}2x>5[8:1],1,8,7x>2[8:1],6,5x,4<7[8:1],3x,
2,1>3b[8:1],8,7x,6x<8b[8:1],5,4,3,
{16}2,1,2,1,3,8,3,8,4,7,4,7,5,6,5,6,
{32}4,3,2,1,8,7,6,5,{8}4/8-4b[8:1],2/6,8/4,{16}1b,1b,,5b,{8}5b,
{1}E1/E7/B6/B7/D5/E5/B5/D7/B4/E3/B3/B2/B1/B8/D1/D3/Cfh[64:1],
E
