&title=goldenslaughterer
&artist=zts
&first=0.04
&des=Beatrice
&lv_5=14
&inote_5=(133)
{1},
{24}D8,A7,D7,A6,D6,A5,D5,A4,D4,A3,D3,A2,D2,A1,D1,A8,D8,A7,D7,A6,D6,A5,D5,A4,
{24}D4,A3,D3,A2,D2,A1,D1,A8,D8,A7,D7,A6,D6,A5,D5,A4,D4,A3,D3,A2,D2,A1,D1,8x-4[8:12],
{1},,
{24}D4,A4,D5,A5,D6,A6,D7,A7,D8,A8,D1,A1,D2,A2,D3,A3,D4,A4,D5,A5,D6,A6,D7,A7,
{24}D8,A8,D1,A1,D2,A2,D3,A3,D4,A4,D5,A5,D6,A6,D7,A7,D8,A8,D1,A1,D2,A2,D3,A3,D4,A4,D5,A5,D6,A6,D7,A7,D8,A8,D1,A1,D2,A2,D3,A3,D4,A4,D5,A5,D6,A6,D7,7xp2[4:2],
{1},
{4}4-1[2:1],4,4,4,
{4}4-1[2:1],4,4,4,
{4}4>1[2:1],4,4,4,
{4}4q1[2:1],4<8[2:1],,,
{4}5-2[4:1],4,1-6[4:1],8,
{4}7-4[4:1],6,3-8[4:1],2,
{4}4-1[4:1],3,8-5[2:1]*q2[8:6],,
{8},,,,,,7,{16}3,6,
{4}4-2[8:1],5h[16:3],1-7[8:1],2h[16:3],
{4}5-3[8:1],6h[16:3],2-8[8:1],3h[16:3],
{4}6-4[8:1],7h[16:3],3-1[8:1],4h[16:3],
{4}7-5[8:1],8h[16:3],4-2[8:1],{16}5h[16:3],,,,
{4}1qq7[16:2],2h[16:3],5qq3[16:2],6h[16:3],
{4}2qq8[16:2],3h[16:3],6qq4[16:2],7h[16:3],
{4}3qq1[16:2],4h[16:3],7qq5[16:2],8h[16:3],
{4}4qq2[16:2],5h[16:3],8qq6[16:2],{16}1h[16:3],,,,
{4}5>3[8:1],{8}6,7,{4}1<7[8:1],{8}2,3,
{4}6>4[8:1],{8}7,8,{4}2<8[8:1],{8}3,4,
{4}7<5[8:1],{8}8,1,{4}3>1[8:1],{8}4,5,
{4}8<6[8:1],{8}1,2,{4}4>2[8:1],{8},{16}5,6,
{4}7-4-1[4:1],{8}8,2,{4}3-8-5[4:1],{8}4,6,
{4}8-5-2[4:1],{8}1,3,{4}4-1-6[4:1],{8}5,7,
{4}1-6-3[4:1],{8}2,4,{4}5-2-7[4:1],{8}6,5,
{16}4q1[2:1],,,2,3,,,7,6,,,3,4,,,8x,
{8}7xh[2:1],4,4,3,2,{24}1,6,1,{8}6,1,
{8}2h[2:1],5,5,6,7,{24}8,3,8,{8}3,1,
{4}2-5-1-6<4[8:12],2h[4:3],,,,,,,
{8}2h[2:1],5,5,6,7,{24}8,3,8,{8}3,8,
{8}5h[8:1],7h[8:1],5h[8:1],4h[8:3],3h[8:2],{24},,,{8},,
{4}3p2<3[8:12],3h[4:3],,,,,,,
{16}56,,45,,3/4h[8:1],,,,1,,7,8h[16:1],,6,5h[16:1],,
{16}56,,45,,3/4h[8:1],,,,1,,7,8h[16:1],,6,5h[16:1],,
{16}57,,45,,2/4h[8:1],,,,1,,7,8h[16:1],,6,5h[16:1],,
{16}57,,45,,2/4h[8:1],,,,1,,7,8h[16:1],,6,5h[16:1],,
{16}68,,45,,1/3h[8:1],,,,4,,7,1h[16:1],,5,3h[16:1],,
{16}68,,45,,1/3h[8:1],,,,4,,7,1h[16:1],,5,3h[16:1],,
{16}87,,45,,1/2h[8:1],,,,4,,7,1h[16:1],,5,3h[16:1],,
{16}87,,45,,1/2h[8:1],,,,4,7,,2,6,3,5,4,
{8}73,,8-4[8:1]/2,71,86,,4-8[8:1]/6,35,4/2>6[8:1],
{8},8,,{16}8-4[8:1]/4-8[8:1],37,26,15,84,,,,
{16}7,,5,3,4h[8:1],,2,6,1h[8:1],,7,4,8h[8:1],,4h[8:1],,
{16}7,2,6,2,5,2,4,2,6h[8:1],,3,4,5,,6,,
{8}26,,1-5[8:1]/7,28,13,,5-1[8:1]/3,64,5/7<3[8:1],
{8},1,,{16}1-5[8:1]/5-1[8:1],62,73,84,15,,,,
{16}7,,4,6,5h[8:1],,7,3,8h[8:1],,4,5,2h[8:1],,C,,
{16}2,,6,2,7,,8,,8b,4,1b,3,8b,2,7b,1,
{16}6-2[8:1],,4,4,6,,4,,3,8,2,7,1,,6h[8:1],,
{16}2,,{16}8x-4-7[6:1],2x,6xh[16:1],,{16}8,,5h[4:1],,{24}8,1,2,{16}3,,6,,
{16}4-8[8:1],,7,7,4-2-6[4:1],,6,,4/8x-5[8:1],,8x-3[8:1],,8x,,8xb,,
{16}7,,{16}1x-5-2[6:1],8x,3xh[16:1],,{16}1,,3h[4:1],,{24}1,8,7,{16}6,,3,,
{16}6-2[8:1],,4,4,6,,4,,3,8,2,7,1,,6h[8:1],,
{16}2,,{16}8x-4-7[6:1],2x,6xh[16:1],,{16}8,,6h[4:1],,{24}8,1,2,{16}3,,6,,
{16}1,2,3,4,2,3,4,5,3,4,5,6,4,5,6,7,
{24}4h[8:1],,,8,7,6,5h[8:1]/1bx,,,7,6,5,4h[8:1]/8bx,,,6,5,4,3h[8:1]/7bx,,,,,,
{8}8x>3[8:1]/3x<6[8:1],,8b/3b>5p4-2-8-6-4[1:4],
{8},,,,,,,,,,,,,,,{8},,,,,,,,,,,,,,
{8},,,2-7q5-2[4:14],,,,,,,,,
{8},,,,,,,,,,,,,,,,,,,,,,
{16}56,,54,,43,,3,5,2h[8:1],,8,3h[8:1],,6,2,,
{16}56,,54,,43,,3,5,2h[8:1],,8,3h[8:1],,6,2,,
{16}56,,54,,43,,3,5,1h[8:1],,7,4h[8:1],,6,3,,
{16}56,,54,,43,,3,5,1h[8:1],,7,4h[8:1],,6,3,,
{16}56,,54,,43,,3,4,1h[8:1],,5,8h[8:1],,4,1,,
{16}56,,54,,43,,3,4,1h[8:1],,5,8h[8:1],,4,1,,
{16}56,,54,,43,,3,4,1h[8:1],,5,8h[8:1],,4,1,,
{16}5/7>1[8:1],,46,,57,5,,,4/6<1[8:1],,35,,46,4,,,5<1[8:1]/3,,42,,53,3,,,{16}4,4,7,3,
{16}3,6,2,5,{32}2xb,3,4,{32}5,6,7,8,1,2,3,4,5,6,7,8,1,6<2[4:1]/2h[4:1],,,,,,,,
{8},,4-7[8:1],,8-4[8:1],,4-7[8:1],,
{8}8-4[8:1],,4-7[8:1],,8-4[8:1],,4-7[8:1],,
{8}8-4[8:1],2,8/4-7[8:1],,8-4[8:1],,8/4-7[8:1],,
{8}8-4[8:1],2,8/4-7[8:1],,8-4[8:1],,8/4-7[8:1],,
{8}8-4[8:1],2,8/4<7[8:1],,8-4[8:1],2,8/4-6<7[8:1],,
{8}8-4[8:1],2,8/4-7[8:1],,8-4[8:1],2,8/4<7[8:1],,
{8}8-4[8:1],2,8/4-6<7[8:1],2b,8-4[8:1],2,8/4-7[8:1],2b,
{8}8-4[8:1],2,8/4<7[8:1],2b,8v1[8:1],4,{16}8,,3b,4,5,6,7,8,
{8}1-5[8:1],7,1/5-3>2[8:1],7b,1-5[8:1],7,1/5-2[8:1],7b,
{8}1-5[8:1],7,1/5>2[8:1],7b,1-5[8:1],7,1/5-2[8:1],7b,1-5[8:1],7,1/5-8[8:1],7b,
{8}1-5[8:1],7,1/5-2[8:1],7b,1-5[8:1],7,1/5b-2b[8:1],7b,,
{24}1,8,7,6,5,4,3,2,1,
{32}8-5-1[6:1],7,6,,1,2,3,,8,,,,,,,,
{32}4-1-5b[6:1],3,2,,8,7,6,,4b,,,,,,,,
{32}7-4-8[6:1],6,5,,1,2,3,,7,,,,,,,,
{32}3-8-4b[6:1],2,1,,7,6,5,,3b,,,,,,,,
{32}6-3-7[6:1],5,4,,8,1,2,,6,,,,,,,,
{32}4-1-5b[6:1],3,2,,8,7,6,,4b,,,,,,,,
{32}8,7,6,,4,3,2,,7,6,5,,3,2,1,,
{32}7,6,5,4,3,2,1,8,7,6,5,4,3,2,1,8,
{1}7<6v1<8v3>2v5>4v7[1:3]*<6v1<8v3>2v5>4v7[1:3]/3h[4:13],
