&title=サムライハート(Some Like It Hot!!)
&artist=Afterglow
&first=0
&des=Yoki
&lv_5= 13
&des_5=Yoki
&inote_5=
(113){4},,,,,,,,4h[8:1]/6h[8:1],
6h[8:1]/2h[8:1],{16}1-4[8:1]*-6[8:1],7,{8}3,{4}1x,
5h[8:1]/3h[8:1],3h[8:1]/7h[8:1],{16}8v5[8:1]*v3[8:1],2,{8}6,{4}8x,
{8}6h[8:1],3,{16}6/2,6/2,,3h[8:1],,5,4h[8:1],6,{8}6,1/7,
,1,{16}7/3,7/3,,6h[8:1],,4,5,6,{4}7h[8:1]/4h[8:1],
{8}6h[8:1],3,{16}6/2,6/2,,3h[8:1],,5,4h[8:1],6,{8}6,1/7,
{16}4,5,4,7bx,3,4,3,8bx,2,3,2,7bx,{8}5,4b/6b,
{16}4/3,5/2,,4,,5,,7/8,{8}6/1,8,1,3,
{16}4/7,5/6,,5,,4,,3/8,{8}2/1,1,8h[8:1],1,
{16}7/2,6/3,,5,,4,,6/3,{8}7/2,1,8,6/2,
{16}3/7,4h[16:1]/8h[16:1],,,{8}1/7,1/3,3/5,7/5,{48}B5,C,{24}B1,{48},,{16}2,8,
{8}3V17[8:1],4,3/5,6V82[8:1],5,4/6,3-7[8:1],2,
3/1,8,7,8,7/1-5[8:1],5-1[8:1],{4}1/7h[8:1],
{8},3,{16}4/2,4/2,,5,,6,,7/1,{8}7/1,2,
{4}7h[8:1]/3h[8:1],6h[8:1]/2h[8:1],{8}7-2[8:1]/3-6[8:1],6/2,{4}7/3,
{16}3h[16:1],4h[16:1],3h[16:1],4h[16:1],2h[16:1],5h[16:1],2h[16:1],5h[16:1],1h[16:1],6h[16:1],1h[16:1],6h[16:1],{8}8,{48}7/E1,E2,E3,E4,,,{16}6h[16:1],
4h[16:1],5h[16:1],3h[16:1],4h[16:1],2h[16:1],8h[16:1],4,,6,,3,{48}3/E8,E7,E6,E5,,,,,,,,,{16}6h[16:1],
5h[16:1],6h[16:1],5h[16:1],7h[16:1],4h[16:1],7h[16:1],4h[16:1],8h[16:1],3h[16:1],8h[16:1],3h[16:1],{8}1,{48}2/E1,E8,E7,E6,,,{8}4h[16:1]/3h[16:1],
5h[16:1]/4h[16:1],6h[16:1]/5h[16:1],5h[16:1]/4h[16:1],{16}3,6,4,5,{4}3b/6b,
{32}8h[8:1]/2q6[8:1],3,{16}4,,,{4}2/8h[8:1],{8}8h[8:1]/2-6[8:1],1-5[8:1],2,1,
,6h[4:1],5,4,{16}3/7,3/7,{48},,,8h[8:1]/E3,E4,E5,{4}E6,
4h[8:1]/8h[4:1],{8}3h[8:1],8h[8:1],{16}2,8,,2/8h[8:1],{48},,,,,,2,B2,C,B6,,,,,,,,,{8}2/1,
8/1-5[8:1],8/7-3[8:1],1,7,{48}8,B8,C,B4,{96},,,,,,,,,,,,,,,,{32}1h[8:1]/7p3[8:1],
6,{16}5,,,{4}7/1h[8:1],{8}1h[8:1]/7-3[8:1],8-4[8:1],7,8,
,3,4/3h[8:1],5,6/2h[8:1],7,{48}1h[8:1]/E7,E6,E5,E4,,,,,,,,,{8}4>1[8:1],
5,6,7<4[8:1],8,1,2<7[8:1],3,
4,5-2[8:1],6,7,8-5[8:1],3,{4}4-1[8:1],
{8}8-4[8:5],6,{16}6,6,,6,,6,,6,{8}6,6,
{48}2xv5[8:1]/6xv1[8:1],7x/3x,{24}8x/4x,,,,,{4}6x/2x,{8}8h[8:1],4h[8:1],{4}8h[8:1],
{48}8h[1:1]/2>1[4:3],B2f,Cf,B6f,{12}A6f,{4},,,{16},,,{48},{16}6,
3,8,1,7,2,5,4,7,2,{4}8h[8:1]/1h[8:1],
{16}7,4,5,2,8,3h[8:1],,6h[8:1],,1h[8:1],,7,{8}7h[8:1],5bh,
{16},,5,4,5,2,6,5,6,8,7,6,7,3,8,1,
{8}2h[8:1]/6h[8:1],{16},,,,6,1,7,4,5,2,8,3,{8}6,
5b/1b,5b/2b,5bh[16:1]/3bh[16:1],5bh[16:1]/4bh[16:1],5bh[16:1]/6bh[16:1],5bh[16:1]/7bh[16:1],{16}5b,8b,5b,1bp8[16:27],
{4}5h[4:1],E3/B3,6h[4:1],B5/B4,
5h[4:1],E3/B3,6h[4:1],B5/B4,
{2}4h[4:1]/5-2[8:1],3h[4:1]/4-7[8:1],
2h[4:1]/6>3[16:3],{16}1h[4:1]/5<8[16:3],,,,,2,3,4,
{8}1/5,4,3/B6/E7,4,5/8,4,3/B5/B4,4,
5/7,4,3/E7/B6,4,5/8,4,3/B5/B4,4,
{16}5/7,6,{8}4,{48}7/B6,C,{24}B2,{48},,{16}2/4,3,{8}5,{48}2/B3,C,{12}B7,{48}6/2,,,4,,,{8}8,
{48}6/2,B2/B6,{24}C,{48},,{16}7/3,5,{8}1-5[8:1],7/3,{48}1/5w1[8:1],B1/B5,{24}C,,,,,{4}Cf,
{32}4bx-7[8:1]/8bx-3[8:1],7/3,6/2,5/1,{8}4/8,{4}4bx/8bxp4[8:1],{8}4/8>6[4:1],2q6[8:1],8bx,{48}E3,E4,E5,E6,,,,,,,,,{8}1/7v4[8:1],
5/6,7,{16}3,2h[8:1],{48},,,E3,E2,E1,{16}E8,6/4,{8}6/4,
8/3v8[8:1],2/1,{16}7/3,6,{8}5,1/6v1[8:1],7/8,{16}2/6,3,{8}4,
2/5v2[8:1],3/4,{16}6/5,7,{8}6,7/4v7[8:1],6/5,{16}3/4,2,3,2,
{32}8/3h[8:1],7,6,5,{8}4,{32}6h[8:1]/1q5[8:1],2,3,4,{8}5,5/1V75-3[4:1],7p3[8:1],1bx,{48}E7,E6,E5,E4,,,,,,,,,{8}8/2v5[8:1],
4/3,2,{16}6,7h[8:1],{48},,,E7,E8,E1,{16}E2,5/3,{8}5/3,
{16}4>1[8:1],5,{8}3,{48}4x,E4,E3,E2,,,{16}7<4[8:1],8,{8}6,{48}7x,E7,E6,E5,,,{16}2<7[8:1],3,{8}1,
{48}2x,E2,E1,E8,,,{8}5v2[8:1],6,7/5,8v5[8:1],3,{4}8/1h[8:1],
{32}4bx-1[8:1]/8bx-5[8:1],5/1,6/2,7/3,{8}8/4,{4}8x/4x<2[8:11],{1},{4},,{32}1/8h[8:1],
2,3,4,{8}5,{32}8/1h[8:3],7,6,5,{8}4h[4:1],,,1/5<1[8:1],7/3,
{32}5/1,2,3,4,5,6,7,8,1,2,3,4,5,6,7,8,{2}5h[8:3]/1h[8:3],
{32}4bxv1[8:1]/8bxv5[8:1],5/1,6/2,7/3,{8}8/4,{4}4x/8xV24-6[8:11],{8},,,,,,,,,,,,5-8[8:1],
4,3/5,2-5[8:1],1,8/2,7-2[8:1],6,
5/7,4v7[8:1],3,2/4,1v4[8:1],6,{4}1/5-8[8:1],
{8}5/1-5[8:5],3b,{16}3b,3b,,3b,,3b,,3b,{8}3b,3b,
{32}2bxp6[8:1]/6bxp2[8:1],3/7,4/8,5/1,{8}6/2,{4}6x/2x,{48}6/2,E3/E7,B7/B3,B4/B8,,,{8}6/2,{32}6x-1[8:1]/2x-5[8:1],3x/7x,{16}4x/8x,,,{1}2b/6b/Cf,
E
