&title=Avwvz
&artist=Feryquitous
&first=0.02
&des=Satella
&lv_5=13+
&inote_5=(191)
{1},{8}6,4,5,3,4q5[4:3],Ch[2:1],,,{2},{8},E3,,E4,7,5,6,4,5q6[4:3],Ch[2:1],,,{2},{8},E4,,E6,3,5,4,6,5p4[4:3],Ch[2:1],,,{2},{8},E7,,E6,2,4,3,5,4h[4:3],5x,,5x,{4}5,5,{16}3,4,3,,6,5,6,,
{8}7<4[8:1]/4,,3-6[8:1],3,,,1,8h[4:1],{16}5x,4x,3x,2x,8,7,6,5,{8}1-5[8:1],1,6>1[4:1],6,4h[4:1],,,8x-4[8:1],,3/8,2,1,{16}7,8,7,,2,1,2,,{8}3>8[8:1]/8,7,6h[4:1],,{16}5x,4x,3x,2x,{8}7-3[8:1],8,7,1-5-3[4:1],,1/8,7,6V84[4:1],,4/6,,3-1[8:1],,3/5,6,{4}7-5[8:1],1/7x-1[8:1],7x-3[8:1]/2,3V58[4:1]/7b,,{8},{16}E2,E3,E4,E5,E6,E7,E8,E1,
{4}E2f,{8}4h[8:1],3,5h[8:1],4,6h[8:1],5,7-5[8:1],8,3qq4[8:3]/7,2,3/5,5,6,6,5h[8:1],7,4h[8:1],6,3h[8:1],5,2h[8:1],4,1-5[8:1],5>3-8[4:1],1,6,7-3[8:1],7,1x,2,4-6[8:1],,4,2-4[8:1],,2,7>1[8:1],,7,5,4,3,2-5[8:1],2,6V47[4:1],6,4,3,2-8[8:1],,2/7-4[8:1],,7,3>4[2:1],3,5,6h[2:1],,,,{16}3x,2x,1x,8x,
{4}4b-8[8:1],{16},,3x,2x,{8}1>4[8:1],,1,{16}4x,5x,6x,7x,{8}8x>3[8:1],,8,4-1[8:1],4,5,6,7h[4:1],,5,6h[8:1],4,5h[8:1],3,4h[8:1],2-6[8:1],2,5<8[8:1],5,4,3,2,1,7<4[8:1]/8,,7,8>3[8:1],,8,6-1[8:1],,6,5,4-8[8:1],3<6[8:1],4,3,7,8,1/7,2>5[8:1],,2,1<6[8:1],,1,4,3,5-8[8:1],2-6[8:1],5,2,7,4,3,
{1}2bs6[2:1]/6-1-4[2:1],{8}1x/2x,3/8,4/7q5[4:1],,5<4[1:1],4,3,2h[1:1],{1},{8}5,6h[4:1],1,8-3[8:1],7,8<5[8:1],,8,4,3,2<8[8:1],,8,7,6h[4:1],,5,4-8[8:1],3,4,2-5[8:1],1<6[8:1],2,1,,4,3/5,2/6,1-5[8:1],7-4[8:1],1,7,3,2/8,7,6x/5x,4/5,3/4,1/2,1x/8x,
{1}7V15[2:1]*s3[2:1]/Cf,{2}4V26[4:1]/6h[4:1],{16}A7,A8,A1,A2,A3,A4,5hx[4:1]/1hx[4:1],,
{4},2/6b-2[8:1],{8}3-8[8:1],3,5,6,7-3[8:1],7,2>5[8:1],2,1,1,8,1/7,2-5[8:1],6-3[8:1],2qq7[8:3],6,2,,6,6,5,4h[4:1],3,2h[4:1],5,6h[4:1],1,8,7-3[8:1],,7,5-1[8:1],,5,6>3b[8:1],,{4}3<8[4:1]/6,,,{16}E2,E3,E4,E5,
{4}Cf,{16},B3,B4,,,E7,B6,,,E2,B1,,,,{4}E8,A6/E6,{16}E5/B4,,,,B1/B2,,{1}Ch[4:3],{8}1,{16}1,2,3,4,{8}5,7,8,1,8,7q4[8:3],,,4q1[8:3],,,1<6[8:3],,,6V42[8:3],,,2<3v6[1:1],,{4}4h[8:5],,,{8},2,,1h[2:1],,,,{4}7h[2:1],1,2,3>5[2:1]/6,7h[4:3],,,{16}E4,B4,,,,E7,B6,,,,,E2,B2,,,,,E8,B8,,,,,,,B4,B5,,,,{8}Ch[8:3],,,B1/B8,,,2V46[8:3]/7,,,6>1[8:3],,,1pp7[8:3],,,7<3[8:3],,,3V16[8:3],,,{4}6,5,{4}4>6[2:1],,,5h[8:3],,{8},{16}8x,1x,2x,3x,{4}4b/8b,
1/8,{8}3>8[8:1]/8,7,3,6,5-1[8:1],,4-8[8:1]/5,,4/6,7,1/7,1/7,2-5[8:1]/6-1[8:1],1x,2/6,,3V15[4:1],5,3,6,7V51[4:1],,5/7,4,3,2,2/8,2/8,3-1[8:1]/7-4[8:1],8x,3/7,,5<8[8:1],2,5,3h[8:1],1-5[8:1],8,1/7-2[8:1],,2/7,3,3/4,4/5,5-1[8:1]/6-1[8:1],7x,5/6,,2>5[8:1],8,2-6[8:1],7,2,,4/8,{16}7,7,5,,{8}6/4V28[4:1],,4b,7,6,5h[4:1],,1>6[4:1],2,7,7,8,8,1h[4:1]/7,,6<3[4:1],5,2,3,4-1[8:1],,4/5h[4:1],,8,
6h[4:1],1,2,3-6[8:1],7,3,,1x/8x,2/7,3/6,4x/5x,3/4,1/2,8-4[8:1],,7-3[8:1]/8,,7,2-5[8:1],,2/6,6h[4:1],,7,8,1,2/8,7-4[8:1],3pp8[4:3],7,,,8,,7,,{16}7x>4b[8:7],6x,{1}5h[4:3],
{4}8b,{16}8,7,6,5,{4}4x/2x-7[8:1],2x/8x-5[8:1],6x-1[8:1]/8x,{16}6,5,4,3,{8}2-6[8:1],7-4[8:1],2,7,1>5[8:1],,{16}1/5,6,7,8,{8}1h[4:1],,4,3,{16}2,1,2,,8,1,8,,{8}1x,2x/8x,3x/7x,4x/6x,3,2h[4:1]/5,{16}5,6,7,8,{8}1,3v6[8:1],8,3,7v4[8:1],4,7,3<7[4:1],2,1h[8:3],,,8x,{16}8,7,6,5,{8}3-7[8:1]/4-8[8:1],,3/4,,2b/6b,1,{16}5,4,3,2,{4}1hx[4:1],{8}4x,3x/8x,2x/7x,
1b/6x,7-4[8:1],8,7,2-6[8:1],1,2,8,7-4[8:1],3,{16}7,3x,2x,1x,{8}8-4[8:1],6,8,5-1[8:1],3,5,3-6[8:1],2,3,1-5[8:1],4,1,2-6[8:1],6,{16}2,6x,7x,8x,{8}1-5[8:1],4,3,2-6[8:1],6,7,8-4[8:1],1,2,3-8[8:1],5,6,7,7h[4:1],,{16}8,1,2,3,{8}4/8,3/7,2/6,1h[8:1]/5h[4:3],,,8h[8:1],,6h[8:1],,{16}4,3,{1}2b>3-7[2:1]/5s1[2:1],
{4}8b,{8}2h[8:1],4,3h[8:1],5,4h[8:1],6,5h[4:1],7,8,1,4-2[8:1],2-5[8:1],4,1,8>3[8:1],7h[8:1],,6>4[8:1],7h[8:1],,8,7-4[8:1],,8,1-5[8:1],2-4[8:1],1,2,6,6,8,,7h[8:1],5,6h[8:1],4,5h[8:1],3,4h[4:1],2,1,8,5-7[8:1],7-4[8:1],5,8,1<6[8:1],2h[8:1],,3<5[8:1],2h[8:1],,1,2-5[8:1],,1,8,7,6-1[8:1],3-8[8:1],6,3,
