&title=add+venturers!
&artist=otoshi.b
&first=0
&des=lowbackpan
&des_5=
&lv_5=14
&inote_5=(185){16},{1},{4}3h[2:1],
,5h[2:1],
,Cf,{8},3h[8:1],,6,
,6/3,,,,6,{4}4h[8:1],
,B7/B3,{8},6,{4}5h[8:1],
{8},7/4,,,,3,{4}5h[8:1],
{8},2h[8:1]/4h[8:1],,,,3,{4}5h[8:1]/2h[8:1],
{8},1h[4:3],,,,6,{4}7h[8:1],
,B2/B6,{8},5,{4}4h[8:1]/7h[8:1],
{8},8h[8:3],,{16}4,3,{4}2h[4:1],Cf,
{8},5bx/6bh[4:3]x,,,,4,3,2qq6[2:1],
,2/8,{4},{8}5,4-6[8:1],,4qq8[16:7],
,4,{4},6h[4:1],1h[4:1],
3-5-7-1[32:13],{8}8,1,2,3,,8/4,
6,5/2h[8:9],{4},{8}8,1<2<8[8:9],,1,
{4},,,4h[8:3],
{8},{16}7,3/6,{8}2/5,7/8,5/4,1/2,{16}6,1,7,2,
8,3,1,4,E3,B3,B4,E5,E1,B1,B2,E3,E7,B7,B8,E1,
E5,B5,B6,E7,{4}C,,{16}4,5,4,5,
{8}2,7b/Cf,,,,,,,,,,8,
1/3,2,{16}1/7h[4:1],{8},{16}5,
{8},8,,1,8/6,7,{16}8/2h[4:1],{8},{16}4,
{8},1,,5,2/4,3,{16}8bh[16:1]/5bh[16:1],{8},{16}6bh[16:1]/3bh[16:1],
{8},1bh[16:1]/4bh[16:1],,5/7,6,7,{16}6/8bv5[8:1],{8},{16}7,
{8}8,1,,4/2,3,2,{16}3/1bv4[8:1],{8},{16}2,
{8}1,8,,2/7,1,6/8,{16}1bv3[8:1],{8},{16}2,
{8}1<7p6>5b[16:9],8,{4},,,{8}8/4qq2>3qq1[16:11],
7/3,{4}4/8,7-4b[16:3],7b,
,{8}1/5,2/6,{2}3v1-4[8:3]/7-4V68[8:3],
{4},{8}3/7,2/6,{2}1>2-8-3-6[8:3]/5<6-4-7-2[8:3],
{4},{8}5/1,8/4,7/3,2,8/7,{16}5,4,
{8}5b-1[8:1],1/2,{4}5b,3qq2p6[2:1],3b/5,
{8}5,4,{4}3v8[8:1],7/3<5-7-1>2[8:3],1/3b,
{8}4-8>1-6[2:1],5,{4}4,5v2[8:1],5b,
{8}3/7,5,2/8,{24}2,3,4,{8}5/6,{16}7,8,6,1,{8}5,
2/4,1,8b/6b,5,5,{16}5,7,,7,{8}5,
4,{16}4,2,,2,{8}4,5,{16}5,7,,7,{8}5,
6/8-4[8:1],7/1,8b,1,1,{16}1,3,,3,{8}1,
8,{16}8,6,,6,{8}8,1,{16}1,3,,3,{8}1,
2/4-8[8:1],3/5,4b,7,7/1,{16}7,6,,6,{8}7,
6/4-8[8:1],5/3,4b,2,2/1,{16}2,3,,3,{8}2,
3/5-1[8:1],4/6,5b,7,6/5-1[8:1],4/3,6/5b,7,
4/6,3/5,{16}A2,A1,A8,A7,B2,B1,B8,B7,B3,B4,B5,B6,
A3,A4,A5,A6,{4}Cf,,,,,,,,B2/E2/B6/B1/E6,
,,,E1/A8/B8/B4/B5,
,,,4h[2:1]/6<2p6[4:5],
,,,3h[2:1],
,,,2>3-7[2:1],
,6V84[2:1],
,,,{8}2/4,3/5p2[2:1],
4/6,5b/7,{4},{8}1<5[4:1],1,{4},{8}8-2>4<5-7[2:1],
8,,,,,,8b/4,
{16},1/5b,{8},{4}6/2b>3v8[16:3],{8}6,5>3[8:1],,5/1-5[8:1],
,1/5V31[4:1],,8,7,6,,4/8-6[16:3],
1/5,8,{4}5-3-7[16:3],{8}8,2-6[8:1],,2/8>3-5<7-1[16:9],
,8b,,,,,,4h[16:1]/6h[16:1],
{16},1h[16:1]/5h[16:1],{8},2/4,7/8,6/4,1/2,{16}3,8,2,7,
1,6,8,5,E7,B6,B5,E5,E1,B8,B7,E7,E3,B2,B1,E1,
E5,B4,B3,E3,{4}Cf,,,,,,,,3,
3,3p7[4:1],
3,5,5,5q1[4:1],
5,4h[4:3],7,6,
5,6h[4:3],4,3,
2,2/6,3/5,6/3,
7/2,1h[4:1]/8h[4:1],,{16}7,8,{8}7p3[8:1],
6,7b,{4}1-3[8:1],{8}1-6[8:1],{16}4,4,{8}1,4-6<8-4[4:1],
,4,{4}1>2-6[4:1],{8}5,7-5[8:1]*-3[8:1],,7>2V46[3:1],
,7,{4},1-5[8:1],1/7p3[8:1],
7/1-7>4[2:1],{8}1/4,5,6,7,{16}8-2[8:1],{8},{16}5>3-8-6-4-7>8-2-4b[32:51],
{8}8,5,,,,,,,,Ch[8:5],
{1},{16}2,
4,3,5,4,6,5,7,8,6,1,7,
2,8,3,1,{8}2,{32}1b,8,7,6,5,{16},{32}8b,1,2,3,4,{8},{16}8,2,
7,1,6,8,5,A7,A6,A5,A4,A3/A7,A2/A6,A1/A5,A8/A4,B3,B2,B1,
B8,B7/B3,B6/B2,B5/B1,{8},3b/7b,{4}3b/7b,{8}6b/2b,2b/6bv1[8:1],
,6,{4}4<7[8:1],{8}2/4q8[8:1],{16}2-8[8:1],2,{8}4,2x>4-6[24:5],
6,2,{4}1-6-2[32:7],{16}5/1,4,{8}3-8[8:1],4,3/6p2[8:1],
5,1/6,{4}8-4[8:1]*-5[8:1],8b,{8}1-7[8:1],2,
5-8[8:1]/1-3[8:1],4,{4}5/1<3[4:1],1b,{16}8-3[8:1],7,{8}6-2[8:1],
8-5>3[16:5],6,{4}8,{16}7-5q1[4:1],8,{8}1,7,3-8[8:1],
2,3-5[8:1]/7v2[8:1],6,3b/7b-1[8:1],,7-5[8:1]/3v8[8:1],4,7b/3b>1-5[4:1],
,3,5,6,{16}7-4b[8:1],{32}4,3,2,1,{16},{32}7x,8<1[32:11],1,2,3h[8:1],,,,8b,,
{16},,,,,{24}8,7,6,{8},{16}1,5,2,7-4[8:1],3v8[8:1],5,
2,7,{8}3,,2-4[8:1]/6-1[8:1],1/5,6/2-6-4[4:1],,2,
7,8b-4[8:1]*-2[8:1],,8<6-2[16:3],,8,,{16}5-1[8:1],1,
{8}1,8-6[8:1]/5-3[8:1],7,5-1b[8:1]/8-2b[8:1],,5b/8<6[8:1],,8/3-7[8:1],
2,3b/8p4>7[32:11],,{32}8b/4,3,2,1,{4},{16}2,6x,4-8[8:1],7,
2,5,{8}4,{4}6x-2<8[4:1],{24}6/2,3,4,5-1[8:1],,,,,,{8}7/5,
6,5,{4}1-4[32:3]/4-7[32:3],{6}1/4,{24}3/6,2/5,{8}1/4-6[8:1],8-2-4[6:1],
4/1,8b,{4}7-4-6[16:3],{24}7/3,2,1,8-4[8:1],,,,,,{8}6/8,
7,8,{4}1-7[32:3]/5-3[32:3],{6}1/5,{24}2/6,1/5,{8}4/8-2[8:1],3q7[8:1],
8<5b[16:3],3,{4}8b-4-6[4:1],{24}8/4,3,2,1v6[8:1],,,,,,{8}7/1b>5b[16:3],
8,1-7[8:1],,1b-3[8:1],6,1b,{16}7,4x,8b-4[8:1],2,
6,3,{8}8b,{4}2x-7-1[16:3],{24}2/7,6,5,4>8[24:5],,,,,,{8}2h[4:1],
,{16}7,3/6,{8}4/5,8b/7,5b/4,1/2b,{16}6,1,7,2,
8,3,1-5b[0.4865##0.1168],4-8[0.4022##0.1168],{4}A2,{24}1bx/4bx,Cf/B1/B8/B5/B4,,,,,,,,,,,,,,{8}6v1[8:1],
,6,2,3,{16}4/8,3/7,6/2v7[16:3],1/5,
{8}4/8,2/6b-4-8[32:7],,{24}8/6,1,2,{4}3-1[8:1],{24}8/3-7[8:1],7,6,5,{12},{8}6x/3-5-1[32:7],
8,{24}3x/1,8,7,6-3[8:1]*-2[8:1],,,,,,{8}6b-1^7[4:1],,4/6>7b[8:3],
5,6-2[8:1],,6,,{16}8/3v5[8:1],4/1,{8}2/5-2-8[4:1],8/3,
7,6,{4}5-8<6[32:7],{24}1b/5v2b[8:1],2,3,4-8[32:5],{12},{8}5,4<2b[4:1],
,4,,4p8[8:1],5,6/4-7pp1-6b[16:7],,4/1,
2,3,{4}3-6-4[8:1],{24}3/6b,7,8,1p4[8:1],,,,,,{8}3/1<5b[16:3],
2,1,,{16}4/8,3/7,{4}6bh[16:3]/2bh[16:3],{16}3b,7,4b,8,
5b,1,{8}2b/6bqq4<5qq3qq1>2qq8qq6<7v5[8:45]*qq4<5qq3qq1>2qq8qq6<7v5[8:45],{2},,,{8}A1,
E1,
B8,A7,E7,B6,,E2,,A4,
E5,B5,,{16}E3,E4,{8}A4,{4},{8}E4,
C,B7,,,,B1,B2,B3,
E3,E4,,B1,{2}A8,
{8},2-6[4:11],,,,,,,,2-6b[1.9427##0.3211],
{1},{4},{16},,,B8,
C,B4,
E
