&title=PISCES -D-
&artist=Tatsh
&first=0
&des_1=SeBiAn-A
&des_2=SeBiAn-A
&des_3=SeBiAn-A
&des_4=SeBiAn-A
&des_5=SeBiAn-A
&lv_5=14
&des_6=SeBiAn-A
&des_7=SeBiAn-A
&des=SeBiAn-A
&clock_count=4
&inote_5=(180){1},
{16}7p4[8:10]/2h[8:16],,,,,,,,,,,,,,,,,,,,,,,,,,,,,,,,,,
4<7[8:5],,,,,,,,,,,,,,
1pp4[8:4]*qq6[8:4],,,,,,,,,,,,,,,,
5/6,,7,,5/6,,4,,5-3[8:1]/6,,,,5/6,,,,
3/4,,2,,3/4,,5,,3-1[8:1]/4,,,,3/4,,,,
7/8,,6,,7/8,,1,,7/8-2[8:1],,,,7/8,,,,
2/1,,3,,1/2,,8,,2-4[8:1]/1,,,,1/2,,,,
4/6,,7,,4/6,,3,,4-2[8:1]/6,,,,4/6,,,,
1/7,,6,,1/7,,2,,1/7-5[8:1],,,,1/7,,,,
3/5,,2,,3/5,,6,,3-1[8:1]/5,,,,3/5,,,,
E6,E7,E8,E2,E3,E4,E1,E8,E7,E6,E5,E4,
1xh[16:1],,1xh[16:1],,
2,,2,,6,,5,,7-3[8:1],,7,,2,,2,,
4,,4,,8,,2,,4-7[8:1],,4,,2,,2,,
1,,1,,6,,4,,3-8[8:1],,3,,5,,4,,
4-6[8:1],,,,4-8[8:1]/8<5[8:1],,,,4/8>3[8:1],,,,7,,7,,
7h[8:1],,,,1,,2,,3-8[8:1],,3,,5,,6,,
7h[8:1],,,,8,,1,,2-5[8:1],,2,,5,,6,,
7h[8:1],,,,2,,3,,4-1[8:1],,4,,8,,7,,
6hx[8:3],,E2,,E3,,E4,,E8,,E7,,E6,,E5,,
2-5[8:1],,2,,5,,6,,7hx[8:3],,E1,,E2,,E3,,
6-1[8:1],,6,,2,,3,,4hx[8:3],,E1,,E8,,E7,,
5-8[8:1],,5,,1,,2,,3hx[8:3],,E8,,E7,,E6,,
4-1[8:1],,4,,7,,6,,5hx[8:3],,E2,,E3,,E4,,
6-1[8:1],,6,,2,,3,,4hx[8:3],,8x,,7x,,6x,,
5-8[8:1],,5,,1,,2,,3hx[8:3],,7x,,6x,,5x,,
2-5[8:1],,2,,6,,7,,8hx[8:3],,5x,,4x,,3x,,
7-2[8:1],,7,,2,,3,,4hx[8:3],,1x,,8x,,7x,,
4>1[8:1]/6,,4,,7,,7,,8-3[8:1]*-5[8:1],,,,8,,,,
6<1[8:1]/2,,6,,3,,3,,4-1[8:1]*-7[8:1],,,,4,,,,
8<5[8:1]/1,,8,,2,,2,,3-8[8:1]*-6[8:1],,,,3,,,,
7>1[8:1],,,,4>1[8:1]/7-3[8:1],,,,4<7[8:1]/7,,,,1,,1,,
2-6[8:1],,2,,7,,7,,8>3[8:1]*<5[8:1],,1/7,,8,,,,
4-8[8:1],,4,,3,,3,,2>5[8:1]*<7[8:1],,1/3,,2,,,,
6-1[8:1],,6,,2,,2,,3<6[8:1]*>8[8:1],,2/4,,3,,,,
7-5[8:1],,,,3-8[8:1]/7-3[8:1],,,,3<6[8:1]/7,,,,1,,1,,
1,2,3,4,6,7,8,1,4,3,2,1,7,6,5,4,1,,1,
2,3,4,5,7,6,5,4,1,2,3,4,,
6,5,6,5,6,4,7,4,7,4,8,3,8,3,8,3,
8,1,7,2,6,3,5,4,6,3,7,2,8,1,7,2,6>7[8:6],,,,,,,,,,,,,,,,
{1}
4>5[8:30],,,,
{8}
3>4[8:30],,,,E8,,,,E4,,,,E2,,,,E6,,,C,,,E2,,,,E6,,,,C,,
7>6[8:30],,,,E8,,,,E4,,,,E2,,,,E5,,,C,,,E2,,,,E6,,C,,E2,,
8<1[8:30],,,C,,,E4,,,,,,E8,,,,C,,,,,,,,E5,,,,,,,,
Ch[8:14],,,,,,,,,,,,,,,,
{16}
1<6[8:1],,,,1>4[8:1]/5-1[8:1],,,,1<6[8:1]/5,,,,3,,4,,,,
5-1[8:1],,,,8>3[8:1]/5,,,,8,4,5,6,7,8,
1/4<7[8:1],,,,1>4[8:1]/4-8[8:1],,,,1<6[8:1]/4,,,,5,,4,,,,
3>8[8:1],,,,3/7<4[8:1],,,,7,,8,,1,,
2>5[8:1],,,,2-6[8:1]/6<1[8:1],,,,2/6>3[8:1],,,,8,,7,,,,
6-2[8:1],,,,3>8[8:1]/6,,,,3,,7,,6,,
5/1>4[8:1],,,,1-5[8:1]/6<1[8:1],,,,1/6>1[4:1],,,,8,,
7V53V17[8:5],,,,,,,,,,,,,,,,,,
5<8[8:1],,4,,3h[8:1],,,,,,2,,2h[4:1],,,,7-5[8:1],,,,1-3[8:1],,1,,,,4<7[8:1],,4,,,,,,
1x,2x,
3xh[4:1],,,,7,,7h[4:1],,,,2-4[8:1],,2,,,,8-6[8:1],,8,,,,5>2[8:1],,5,,,,,,
8x,7x,
6xh[4:1],,,,3,,3h[4:1],,,,7-1[8:1],,7,,,,5-3[8:1],,5,,,,2<7[8:1],,2,,,,
3h[8:2],,,,7,,7h[4:1],,,,1,,1h[4:1],,,,3<6[8:1],,1,,2,,3,,7<4[8:1],,4,,3,,2,,
1>4[8:1],,8,,7h[8:1],,,,,,4,,4h[8:1],,5,,6-8[8:1],,,,2-4[8:1],,2,,,,8<4[6:1],,8,,,,,,
3x,2x,
1hx[8:1],,4,,5,,5h[8:1],,4,,3,,3-1[8:1],,,,7-5[8:1],,7,,,,1V35[16:3],,1,,,,
6hx[8:1],,,,4,,6,,5h[8:1],,7-5[8:1],,7,,,,3-5[8:1],,,,8,,8-4[8:1],,,,
8,,1<3[2:1],,2,,3,,,,,,,,2,,8,,6,,
{24}4hx[8:8]/E6,B6,B7,
{16}E8,,,,,,,,,,,,,,,,
7-4[8:1],,8,,3>8[8:1]/7,,2,,3/7w3[8:1],,,,7,,,,
5-1[8:1],,2,3,5<8[8:1],,4,,5-1[8:1]/3,,2,,5/1,,,,
2>5[8:1],,8,,7,,6,,5<8[8:1],,4,,3,,2,,1>3[12:1]*v4[8:1],,,,1<6[8:1],,,,1/2,,3,,4,,5,,
6<8[12:1],,7,,3>8[8:1]/6>3[8:1],,2,,3w7[8:1]/6,,,,3x,,,,
1>4[8:1],,2,,1-5[8:1]/5<8[8:1],,6,,1/5w1[8:1],,,,5x,,,,
8>3[8:1],,7,,6,,5,,4-8[8:1],,3,,2,,1,,
7<4[8:1],,8,,1,,2,,3-7[8:1],,4,,5,,6,,
8-4[8:1],,7,,3>8[8:1]/8,,2,,3/7w3[8:1],,,,7,,,,
1-5[8:1],,7,6,1>4[8:1],,8,,1-5[8:1]/7,,6,,1/5,,,,
6<1[8:1],,5,,4,,3,,2>5[8:1],,1,,8,,7,,6<8[12:1]*v1[8:1],,,,6>2[8:1],,,,6/8,,7,,6,,5,,
4/8,,4/8,,1/5,,1/5,,2/6,,2/6,,3/7,,3/7,,
4/8,,4/8,,3/7,,3/7,,2/6,,2/6,,1/5,,1/5,,
2,5,3,4,3,7,4,6,5,6,3,4,3,5,2,6,1,7,
2,8,3,7,4,6,5,7,3,8,2,7,1,6,2,4,3,8,
5,6,2,4,1,6,2,8,4,6,1,7,3,5,2,4,3,7,5,6,
1,7,3,4,2,8,5,7,3bV17V53>3[8:22],,E8,,E7,,E6,,
E
