&title=魔理沙になりたいっ!
&artist=金澤まい
&first=0
&des=NaOH
&clock_count=4
&lv_5=13+
&inote_5=(194){4},,,,
{8}3-5[8:1],,7,,7-5[8:1],3,3,,{16}3x,4x,3x,4x,3x,4x,3x,4x,3x,4x,3x,4x,2x,,2-5[8:1],,
{8},8,8,,2x>5[8:1],8,7,,2x>5[8:1],2,8,8,3,3,7,7x-4[8:1],,
1,1,,7x<4[8:1],1,2,,7x<4[8:1],7,3,3,8,8,4,4x-1[8:1],,
5,6,,4x>1[8:1],5,6,,4x>1[8:1],4,5,6,2,2,5,5,
3x/4x,25,6pp5[8:3]/1,,2,2,,{32}2bx<4[8:3],D3,A3,D4,A4f,,,,,,,,,,,,,,,,
{16}3x,,3x,,2,6,2,6,
{8}3x,3xp7[8:5]*V17[8:5],,,,,,,,,,,E3/B3/E7/B6,,E4/B4/B5/E6,,
1xs5s1[4:4]/8xz4z8[4:4],1x/8x,,,,,,,,,,,E7,C,E3,,
6x^3[4:1],,2h[8:1],,1h[8:1],,2h[8:1],,3^6[4:1],,7h[8:1],,8h[8:1],,7,,
2xV46V82[8:4]b/1xV35V71[8:4]b,2x/1x,,,,,,,B3/E4f/B4/A3/D4/A4,,,
B6/E6f/B5/A6/D6/A5,,1x/8x,2bx/7bx,,
4-8[8:1],,7,6-4[8:1],,1,2,3-7[8:1],,6,5h[4:1],,1-5[8:1],4,,,
7-1[8:1],,4,5-1[8:1],,8,7-3[8:1],6,,2,2,,1>4[8:1]*<6[8:1],,A1/D1/D2,,
5-3[8:1],,2,1-5[8:1],,8,7,6-1[8:1],,4,3h[4:1],,4-8[8:1],5,,,
6qq5[4:1],6,5,,3,3^8-4[8:3]*^8^5[8:3]b,,A3f/D3/D4,,,,,
{16}2x/6x,,3,4,3,4,3,4,
{4}3v2-8[4:2],,C,,7v6-4[4:2]b/3,,E2/B2,,1v3^5[4:2]/6,,B7/E8,,
8^6v4[4:2]b/2,,B3/E4,,
{8}2qq3[4:2],,6,6,,5,5,,6pp5[4:2]b,,3,3,,B2,E2f,,
6b/5,6b/5,6b/5,,3b/4,3b/4,3b/4^7[8:1],,1pp1[4:2]*qq1[4:2],,,,,,,,
6h[8:1]/4p2[4:2],,6h[8:1],,6h[8:1],,6h[8:1],,
8p6[4:2]/3h[8:1],,3h[8:1],,3h[8:1],,3h[8:1],,
4V25[4:2]/7h[8:1],,7h[8:1],,7h[8:1],,7h[8:1],,
8-4[8:1],,2-5-8[4:1]*-7-4[4:1]b,,,,,,
3-8[8:1]/4h[8:1],,5h[8:1],,1-4[8:1]/6h[8:1],,7h[8:1],,
5-2[8:1]/8h[8:1],,7h[8:1],,6-1[8:1]/1-5[8:1],,
1>4-8<5[8:6],,7h[4:2],,,,,,8x-4[8:1],,
8,,8-3[8:1]*-5[8:1],,8,,8w4[8:1]*w4[8:1],,
8bV24V28[4:4]b*V64V68[4:4]b/B8/Cf/B5/B4/B3,,,,,,,,,,,,3>8[8:1]/4^7[8:1],,D4/A3/A4,,
{8}
2x/4x,1,2x/4x,3,4x/5x,3,2x/6x,1,2x/8x,3,4x/7x,5,4x/6x,3,2x/8x,3,
4x/8x,3,5x/6x,4,3x/5x,2,1x/5x,2,1x/4x,25,36,47,5^2[8:1]/8<5[8:1],,58,,
2x/6x,3,48,7,2x/6x,5,2-6[8:1]/4,1,8-4[8:1]/2,,8-3-1[4:1]*-5-7[4:1],,8,,,,
35,2,2,5-7[8:1]/3,2,2h[8:1],,,
{24}1b,2x,3x,4x,,,8b,7x,6x,5x,,,1b,2x,3x,4x,,,8b,7x,6x,5x,,,
{8}2-4[8:1],,6-4[8:1],,1-4[8:1],1,8,,6-4[8:1],,2-4[8:1],,7-4[8:1],7,1V35[4:1],,
1b/8b,,8<3[4:1],,1b/8b,,1>7[4:1],,8b/A1f,,,,
{16}2x,6x,2x,6x,3,7,3,7,
{8}3V14[8:9]/3pp4[8:9],,,,,,,,,,,,,
6<4[8:7]/5,5q5[8:6]b/6,,,,,,,,,,
2h[8:3],,1,1,,28,28,,
3h[4:1]/5,,1,,6h[4:1]/4,,8,,3h[4:1]/5,,1,,8-5[8:1],8,1,,
2h[4:1]/8,,4,,7h[4:1]/1,,5,,2h[4:1]/8,,4,,5v8[8:1],5,4,,
1h[4:1]/7,,4,,8h[4:1]/2,,5,,1h[4:1]/7,,4,,1>4[8:1],1,5,,
6,6h[8:1],5,5h[8:1],4,4h[8:1],3,3h[8:1],
{16}5,4,5,4,5,,3,4,3,4,3,,5,4,5,,
{8}2bpp1[4:2]/6b,2b/6b,,{16}E8,E7,E6,,,,,,
{8}7<3[8:3],,3,3q8[8:3],,2,2,,2,2>6[8:3],,6,6p1[8:3],,7,7,,
8-6^5-1[8:5],8,,2,2-4[8:1]b,,,,
Ch[4:7],,,,,,,,,,,,,,8x-4[4:4]*w4[4:4]b,,,,,,,,,,,,,
{32}E1/A1/A8/D2/D8,A7/E7/B6/A2/E3/B3,B5/B4/E5f,,,,,,{8},,,,,,,,,,
,,,,,,,,,
{4}3h[4:4],,,,4h[4:4],,,,5h[4:4],,,,6h[4:4],,,,
4z8[4:5],,5,,6,,7,,6q3[4:5]*<3[4:5],,,,,,,,
1>4[4:2]/8z4[4:2],,,,1s5[4:2]b/8<5[4:2]b,,,,
1h[4:1]/7h[4:1],,3h[4:1]/5h[4:1],,6-1-7[4:2]/2-5-3[4:2],,,,
3q5[4:4],6,7,7,8,8,48,48,
{8}2,2,4,4,5,5,7,7,5,5,46,46,3,3,24,24,
{24}1,2,3,4,5,6,7,8,1,2,3,4,5,6,7,8,1,2,3,4,5,6,7,8,
{8}1b/Cf,,,,3>8[8:1]/4^7[8:1],,D4/A3/A4,,
{16}2x/4x,,1,,6,5,7,,4x/8x,,3,,7,1,8,,
2x/6x,,1,,5,4,6,,3x/7x,,6,,3,4,2,,
15,,2,4,,4,3,,26,,7,1,,1,8,,37,,4,5,3,4,2,4,3^6[8:1],,,,37,,,,
18,,2,5,3,4,3,4,3,,7,4,6,5,6,5,6x,,3,4,2x,,6,5,7x-4[8:1],,,,37,,,,
6,5,6,5,7,,3,4,3,4,2,,7,8,7h[8:3],,
{24}1b,2,3,4,,,1b,2,3,4,,,1b/7b,2,3,4,,,1b-5[8:1]/7b,2,3,4,,,
{8}6-8[8:1],,1-5[8:1],,7-4[8:1],6,2-5[8:1],,
6-1[8:1],,2-7[8:1],,5-1[8:1],4,3>6[4:1],,
3b/5b,,4<2[4:1],,3b/4b,,3,,
{32}8bx,7,6,5,4,3,2,1,8bx,7,6,5,4,3,2,1,8bx,7,6,5,4,3,2,1,
{8}8bx-4[8:1],,8b<1[4:5]b/Cf/1b,,,,,,,,,,,,,8x,8xw4[8:1],,
8b<1[4:3]b/Cf,,,,,,,,
6,6,6,5/7-2[8:1],,3,4-1[8:1],,47,,6,
7<4[8:1],,7-3[8:1],,7,,8,8,8-5[8:1],,8-3[8:1],,8,,
4,4,4-7[8:1]*<7[8:1],,4>1[8:1]*-1[8:1],,4,,
4b/7,6b/3,5b/2,,1b/4,2b/5,3b/6,,
8b/4,7b/3,2b/6,1b/5,
{16}8x,1x,2x,3x,
{8}4x/6x-1[8:1],,3,4,5h[4:1],,7,56,4bv2^3v1[4:5]/5bv7^6v8[4:5],,,,,,,,,,,,,
{16}E6,E5,E4,,,,B2/E3/Cfh[8:5]/B7/E7,,,,
