&title=Dearest Drop
&artist=田所あずさ
&first=-0.15
&des=MMFC10
&lv_5=13+
&inote_5=(146)
{1},
{4}2h[4:2]/7,,4h[4:2],,5>2[4:1],,
{8}1,8,7,6,1-4[8:1]/5h[4:1],,,,3h[4:1]/8-5[8:1],,,,3/4,,5/6,,{16}2x/4x,,,5x/7x,,,1x/Cf,,
{16}3b,,6,5,6,,1,,5,4,5,,2x,3x,2x,,6b,,3,4,3,,8,,4,5,4,,7,6,7,,3b/4b,,6,5,7,,2,,5,4,6,,2,1,3,,6b/5b,,3,4,2/5,,7,,4,5,3/6,,4,5,4,5,6x-1[8:1]/4h[4:1],,,,,,,,3-8[8:1]/5h[4:1],,,,,,,,1-4[8:1],,,,1<5[4:1],,,,{16}5x-2[16:3],,,2x-7[16:3],,,7x-4[8:1],,4x-1-5[16:6],,,,,,,,{16},,,,4,6,3,7,{16}2/8,,,7/5,,,3/4,,
{16}1/Cf,,,,,,3,4,3<6[8:1],,,,,,8,,8h[4:1],,7,,7h[4:1],,6,,6>3[8:1],,,,,,1,,2,,2,,3,,3,,{16}6<1[8:1]/4,,,5,,,5,,6-1[8:1]/3,,,4,,,4,,6<2[8:1]/3,,,5,,,5,,6<3[4:1]/3,,,,Cf,,,,
{16}4xV68[8:1],,,3,,,2,,3V57[8:1],,,2,,,1,,2V86[8:1],,,3,,,4,,6x-3<6[4:1],,,,,,D5/E5,,1,,,1-4-1[4:1],,,1,,8,,,8-5-8[4:1],,,8,,1,,,1<4[6:1],,,2h[32:6],,,,{32}1x,8x,7x,6x,5x,4x,{16},
3bx,4,3x<6[8:1],,,,,,7,,7h[4:1],,5,,5h[4:1],,4,,4<7[8:1],,,,,,8,,1,,2,,3,,4,,{16}3>8[8:1]/5,,,4,,,4,,3-8[8:1]/6,,,5,,,5,,3-7[8:1]/6,,,1x,,,1x,,3p6[8:1]/6,,,,,,5,,3x<6[12:1],,8,8h[8:1],,,7,,6x>3[12:1],,1,1h[8:1],,,2,,4x-8[12:1],,6,6h[8:1],,,7,,8x-4[12:1],,2,2h[4:1],,,,,{32}7-3[8:1],6,5,,{16},8,,,1,,{32}2-6[8:1],3,4,,{16},1,,,8,,7>3v5[4:2],,,4,4h[4:2],,,,,,,,,,,,
{16}2/4,,,5/7,,,1/8,,4/5,,,,1/3,,,6/8,,,4/5,,1/8,,,,3/4,,8,,6/5,,1,,2/B4,,,B5/7,,,1/E7,,E3/5,,,,E1/3,,,6/E8,,,2/E5,,6/E2,,,,6/4,,1,,5/3,,8,,5-1[8:5],,5,,2,3,4,,5x,,5x,,8x,7x,6x,,4-8[8:5],,4,,7,6,5,,4x,,4x,,1x,2x,3x,,3x-6[8:1],
,,,,,7-3[8:1],,3-7b[8:1],,7,,Cf,,,,1b/8b,,,1b/3b,,,6b-3b[8:1]/8b,,4b,,,2b,,,7bq1<6[16:12],,3bq5>2b[16:10]/Cf,,,,,,,,,,,,,,,,
{32}1,2,3,4,5-1b[8:1],,,,,,,,,,,,8,7,6,5,4-8b[8:1],,,,,,,,,,,,1w5b[8:1],2,3,4,5,,,,,,,,,,,,{8}7/5x-3[8:1],8,7/5,8,
{32}4x,3,2,1,8-4b[8:1],,,,,,,,,,,,5,6,7,8,1-5b[8:1],,,,,,,,,,,,
{16}2-8[8:1],,,,2/6-2b[8:1],,,,6,Cf,,5-3b[12:1],,,6-2[8:1],,7-1b[12:1],,,,,,,,
{16}7-5[8:1]/4,,,8,,,1,,2-6[8:1]/4,,,4,,,8,,{128}3x<5[8:1],5x<7[8:1],,,,,,,{16},,,,,,,4h[8:5],,,,2x-7[8:1],,2xb-7-2b[4:1],,,,,,,,5,,5h[8:8],,,,6<1b[12:1],,6,,,,2,,2,,2,,{32}2b-6[8:1],1-5b[32:3],8,7,6,,,,,,,,,,,,4b-8b[8:1],3-7[32:3],2,1,8,,,,,,,,,,,,1bs5[8:1],8z4[32:3]b,7,6,5,,,,,,,,,,,,
{8}2/4x-6[8:1],1,2-4[8:1]/4,1,2/4,,7-3[8:1],7h[8:3],,,4,,
{16}3/5b,,,6b/8,,,1/2b,,5b/7,,,1b/3,,,7/8b,,3b>6[4:1]/6b,,,,,,,,,,
{16}1-6[8:1],,2,,3,,4-1[8:1]b,,,,4/1-4[8:1],,,,1x/8-5[8:1],,,,8/5-8-2-6[8:3]b,,,,4b/5bx,,,,,,,,2-5[8:1]/7,,,1,,,6,,7-4b[8:1]/2,,,8,,,3,,3/6-1b[8:1],,,8,,,3,,{128}5x<7v8>1v2>4[8:5],4xb>2v1<8v7<5b[8:5],,
