&title=[FULL]六兆年と一夜物語
&artist=KEMU VOXX
&first=-1.639999
&des=少年は人になりたかった
&lv_5=14+
&inote_5=(82){32},,,,,,,4,,,,5,{4},{16},{64},,,4,,,,,,,,5,,,,,,,,,{4}6h[2:1],
{8},,,,4,5,
3,6,2,7h[32:5],{32},1-5[64:21],,,,,,,,,{16}8,,7,
{32},,,6h[8:3],,,,,,,,3,,,,3,{64},,,,,,,5/4,,,,,,,,,,,,,,,{32}4,5,4w8[0.6294##1.9758],,,,,5,
(186),{4},,,{16},,{1},
{16}3,4,3,4,{4}3h[4:1],{16},,,,6,5,6,5,
{8}6h[2:1],4,{4}4h[4:1],{16},,,,3,4,3,4,
{8}3h[2:1],5,{4}5h[4:1],{16},,,,4,5,3,6,
2,7,1,8,{8}1h[16:1],2h[16:1]/8h[16:1],7h[16:1]/3h[16:1],4h[16:1]/6h[16:1],{4}5-8[8:1],
{8},,2-6[8:1],1-5[8:1],2,1,{16}3,4,3,4,
{8}3,2/5,7-3[8:1],8-4[8:1],7,8,{16}6,5,6,5,
{8}6,7/4,{16}2,1,2,1,{8}3,{16}7,8,7,8,{8}6,
{16}3,4,2,4,{8}3,{16}6,5,7,5,{8}6V47[4:1],,,,,{4}1h[8:3],
{8}2,3,{4}4h[8:3],
{8}5,6,{4}7-5[8:1],7/8-4[8:1],8/1-3[8:1],
1/7,7h[8:3],{8}6,5,{4}4h[4:1],
3,1-5[8:1],1/7-3[8:1],7/2,
,8h[4:1]/1pp6[2:1],{8},7,{4}7h[8:3],
,3h[4:1]/6V48[2:1],{8},2,{4}2h[4:1],
,3h[4:1],{8}4,5,{4}4/6h[4:1],
{8}5,4,3/5,3,3/4,3,{4}4/3-1[8:1],
8b,{8}3h[4:1],4,5h[4:1],4,3h[4:1],4,
6h[4:1],5,{4}3-1[8:1],7/3-7[8:1],8/3-5[8:1],
3/6,{8}6h[4:1],5,4h[4:1],5,6h[4:1],5,
3h[4:1],4,{4}7<5[8:1],1/7-3[8:1],2/7>1[8:1],
4/7,{8}5h[8:1],6h[8:1],4h[8:1],5h[8:1],{4}3>1[8:1],
{8},,4h[8:1],3h[8:1],5h[8:1],4h[8:1],{4}6<8[8:1],
,2h[4:1],5h[4:1],3h[4:1],
{8}6,6,2h[8:1],3h[8:1],4h[8:1],5h[8:1],{16}2,3,4,5,
8,7,6,5,{4}4-8[8:1],{8}4,2-6[8:1],,2,
{4}7h[4:3],,,8,
1,2q6[8:1],{8}2,8p4[8:1],,8,
{4}1h[2:1],{12},,,,,,2,3,4,
3,4,5,6h[4:1],,,{4}3h[4:1],7h[4:1],
2h[4:1],8-6[8:1],8-2[8:1],8-4[8:1],
8b,{16}1,2,3,4,8/5,7,6,5,{32}4/1,2,3,4,5,6,7,8,
1,2,3,4,5,6,7,8,{4}1h[4:3]/5h[4:1],,6b,
7b,{8}8b/2b-5[8:1],{16}3,4,{8}2,6,1/7-4[8:1],{16}6,5,
{8}7,3,{16}2,1,2,8,3,7,4,6,{4}5h[4:1],
{8}6,7,{4}8-4[8:1],{8}8/2-5[8:1],1,2/7-3[8:1],8-4[8:1],
7,8,5h[16:1],5h[16:1],6h[16:1]/4h[16:1],3h[16:1]/7h[16:1],{4}2-7[8:1]/8-3[8:1],
2b/8b,{8}5b/2b-8[8:1],{16}3,4,{8}2,5,4/7-1[8:1],{16}6,5,
{8}7,4,3/5,2/8,4/6,7/1,{16}3,4,3,4,
{8}5/2,1/6,8/7h[16:3],{16}2,2,{8}8h[16:3],{16}3,3,{8}7h[16:3],{16}4,4,
{8}6h[16:3],{16}3,3,{8}5,3/4-8[8:1],2/1-5[8:1],4,{4}1-3[8:1]*-7[8:1],
1b,5s1[8:1]/4z8[8:1],5b/4b,{8}7b/2b-5[8:1],{16}6,6h[16:1],
{8}2,6,{16}7,8,7,1,6,2,5,3,{4}4h[4:1],
{8}3,2,{4}1>4[8:1],{8}1/7-3[8:1],6,7/2-6[8:1],1-5[8:1],
2,1,{24}2b,3,{6}4,{24}8b,7,{12}6,{48},,,,{16}2,1,3,8,
4,7,5,6,{8}4b-2[8:1],{16}5,6,{8}4,7,8-6[8:1],{16}1,2,
{8}8,3,2/4,3/5,4/6,5/7,2h[16:1]/8h[16:1],3h[16:1]/5h[16:1],
4h[16:1]/6h[16:1],3h[16:1]/7h[16:1],2/8-6[8:1],{16}1,2,{8}3/8-4[8:1],{16}2,3,{8}4/8<6[8:1],{16}1,2,
{8}3/8,1,5/2v4[8:1],4p8[8:1],2,5,{4}6h[4:1],
1b,{8}3h[8:1],5h[8:1],4h[8:1],6h[8:1],{16}5,7,5,7,
{8}5,6/4,6h[8:1],4h[8:1],5h[8:1],3h[8:1],{16}4,2,4,2,
{8}4,3/5,2h[8:1],4h[8:1],3h[8:1],5h[8:1],{16}4,6,4,6,
{8}4,5/7,6,7/4,{16}3,5,{8}3,6/4,3,
4/2,5,6h[8:1],4h[8:1],6h[8:1],4h[8:1],{16}5,3,6,3,
{8}7,2/8,7h[8:1],1h[8:1],7h[8:1],1h[8:1],{16}8,2,7,2,
{8}6,3/5,{16}6,5,7,5,{8}8,{16}3,4,2,4,{8}1,
{16}6,5,7,4,{8}6,{16}3,4,2,5,{8}3V52[4:1],,,,,{4}6h[8:3],
{8},5,{4}4h[4:1],
{8},5,{4}6>4[4:1],4q8[8:3],3,
,1h[8:3],{8},8,{4}7h[4:1],
{8},6,{4}5-2[4:1],2V48[8:3],1,
,3h[8:3],{8},4,{4}3/5-8[8:1],
,1h[8:3],{8},8,{4}7/1-4[8:1],
,6h[4:1],{8}4,3h[4:1],,,4,
3/5w1[8:5],,,,,,,,,6h[8:1],
4,4h[8:1],5,5h[8:1],3,
3h[8:1],4,{4}2pp5[2:1],5,6,
{8}7,7,7h[8:1],1,1h[8:1],6,6h[8:1],2,
2h[8:1],5,{4}5q8[2:1],3,2,
1,2V48[8:3],{8}2/4,5,{4}6h[4:1],
,7V51[8:3],{8}7/5,4,{4}3h[4:1],
,2>5[4:1],5<8[4:1],8>3[4:1],
3,{8}4,5,6,7,{16}4/8h[16:3],3,2,1,
7/8h[16:3],6,5,4,{4}3V57[2:1],{8},,,,,,,3,
{4}3-1[8:1],3-5[8:1],
,2V86[2:1],{8},,,,,,,6,
{4}6,{12}2,4,3,
6,4,5,2pp5[4:3],,,{4}5,6,
7,8-4[8:1],{16},,,,1b,2,3,4,
8b,7,6,5,{8}4,5/3,2/6,1/7,2/8,3/7,
4/6,5/3,{4}4/3pp8[2:1],,6b,
7b,{8}3b/8b-4[8:1],{16}1,2,{8}8,3,5/2-5[8:1],{16}3,4,
{8}2,6,{16}7,6,5,4,1,2,3,4,{4}5h[4:1],
{8}6,7/4,{4}8<6[8:1],{8}8/2-5[8:1],3,2/8-4[8:1],7-3[8:1],
8,7,8h[16:1],1h[16:1],2h[16:1]/5h[16:1],3h[16:1]/6h[16:1],{4}4h[8:1]/7h[8:1],
{8}3/7,2,6b/1b-5[8:1],{16}8,7,{8}1,6,4/7-4[8:1],{16}6,5,
{8}7,3,2h[8:1],4h[8:1],3h[8:1],5h[8:1],{4}4-1[8:1],
4b/7b,{8}8h[16:3],{16}2,3,{8}4h[16:3],{16}8,7,{8}6h[16:3],{16}1,2,
{8}3h[8:1],5,6/4,7,8/1,2,{4}5-7[8:1]/3-1[8:1],
5b/3b,8w4[8:1],8b,{8}1b/7b-5[8:1],{16}8,1,
{8}7,2,{16}4,3,2,1,5,6,7,8,{4}4/1-5[8:1],
{8}2/1,3,{4}4-8[8:1],{8}4/7-3[8:1],6,7/2-5[8:1],1-6[8:1],
2,1,{24}2b,3,{6}4,{24}8b,7,{12}6,{48},,,,{16}2,5,3,4,
1,6,3,4,{8}2b-6[8:1],{16}3,5,{8}2,7,8b<5[8:1],{16}1,2,
{8}8,3,2/4,3/5,4/6,5/7,{4}6/8h[4:1],
{8}5,4/7,6-4[8:1],{16}3,3,{8}6-2[8:1],{16}2,2,{8}6-8[8:1],{16}1,1,
{8}6-4[8:1],{16}2,2,{8}6v1[8:1],3,6,2,{4}5h[4:1],
{8},,2/8,{16}3,5,{8}4h[8:1],6,7/5,{16}8,2,
{8}1h[8:1],7,2/5,3/6,2/7,1/8,{16}2,3,8,7,
3,4,7,6,{4}2b,{16},,,,,,,,,,,,1b,
1b,1b,1b,{8}1b,2/8,{16}3,4,2,6,
5,7,1,8,{8}2h[4:1],{16}1,8,7,6,4/5,3,2,1,7,6,
{4}5h[8:1],{16}2,4,3,6,4,5,1,7,2,2h[16:1],6,6h[16:1],
4,4h[16:1],8,8h[16:1],3,7,4,6,3,5,2,6,3,4,2,7,
8,6,3,7,{24}4,6,4,6,4,6,4,6,4,6,4,6,4,3,2,6,7,8,
3,2,1,5,6,7,{4}3-7[8:1],,8-4[8:1],
,1b-4[8:1]*-3[8:1],1b-7[8:1]*-6[8:1],1b,
,1-5[8:1],,7-3[8:1],
,1>4[8:1]/5<8[8:1],5p1[8:1]/1p5[8:1],1b/5b,
,4h[8:1]/5h[8:1],4h[8:1]/3h[8:1],3h[8:1]/2h[8:1],
2h[8:1]/1h[8:1],{8}1/2,8,2/1,3h[24:7],{12}8,1,2,
3/8,4/1,5/2,3-7[8:1]/6-4[8:1],,,,,,{4}1-4[8:1]*-6[8:1],
,2h[4:1],4h[4:1],6h[4:1],
8h[4:1],{8}4,4,5/3,3/5,6/2,2/6,
1/7,7/1,8<5[8:1],1,8,2,{12}3b,3b,3b,
5b,5b,{6}5b,{12},,,,,,,,,,,{4}5h[2:1],
,4h[2:1],
,5h[2:1],,4h[2:1],
5,6-4[8:1],3,{8}3h[16:1],4h[16:1],
5h[16:1],6h[16:1],{32}2b,3,4,5,,,,,8b,7,6,5,,,,,1bw5[8:1],2/8,3/7,4/6,{8}5,
{4}1b,{8}8b/2b-5[8:1],{16}3,4,{8}2,6,1/7-4[8:1],{16}6,5,
{8}7,3,8/2-6[8:1],3,2/7-4[8:1],8,7/1-5[8:1],2-4[8:1],
1,2,8h[8:1],{16}1,2,{8}7h[8:1],{16}2,3,{8}6h[8:1],{16}3,4,
{8}7h[8:1],{16}2,3,{8}6h[16:1],7h[16:1]/5h[16:1],6h[16:1]/4h[16:1],7h[16:1]/3h[16:1],{4}2-6[8:1]/8-4[8:1],
2b>5[8:1]/8b<5[8:1],8b/2b,{16}2,1,{8}2,3b/8b-5[8:1],{16}2,2h[16:1],
{8}8,1,{16}2,4,3,5,4,6,5,7,1,8,2,7,
1,8,2,7,{8}1-3[8:1],{16}8,7,{8}1,6,5-7[8:1],{16}4,3,
{8}5,2,{32}2b/1h[8:1],3,4,5,,,,,1b/2h[8:1],8,7,6,,,,,2b/1h[8:1],3,4,5,,,,,{8}2/8,
6/4,5b/3b-1[8:1],{16}4,5,{8}3,6,2/7-4[8:1],{16}8,1,
{8}7,2,3b/5b,4b/6b,2b/5b,4b/7b,1b/8b,2/7,
3/8,1/2,8-4[8:1],{16}4,3,{8}2/8<5[8:1],{16}3,2,{8}1/8-4[8:1],{16}4,3,
{8}2/8,{16}1,1,{8}8h[8:1],2h[8:1],7h[8:1],3h[8:1],{16}6,7,8,1,
2/6,3/7,4/8,5/1,{4}6-2[8:1]/2-6[8:1],2b/6b,4-8[8:1]/8-4[8:1],
4b/8b,(146){8}1h[16:1]/5h[16:1],2h[16:1]/6h[16:1],(136)3h[16:1]/7h[16:1],8h[16:1]/4h[16:1],(126)5/1,2/6,
(116)3pp2[8:3]/7pp6[8:3],4/8,{32},,,,,,,,,,,,,,,,(186)1b,2,3,4,5,6,7,8,
1b,2,3,4,5,6,7,8,{16}1b,5,2,6,3b,7,4,8,2b,6,4,8,
1b,5,3,7,{8}1,2/8,7/3,4/6,{4}5-8[8:1]*-2[8:1],
5b,{8}6/5,3,6/4,2,{16}3,4,2,5,
{8}3-8[8:1],4,3/4,6,3/5,7,{16}6,5,7,4,
{8}6-1[8:1],5,6/5,3,6/4,2,{16}3,4,2,5,
{8}3-8[8:1],4,3/6-1[8:1],7,6/3,2,{16}3,4,7,6,
2,3,8,7,{8}1,2/5,3/6,4/7,{16}6,5,6,5,
{8}6,7/5,8,7/4,6/3,5/2,{16}3,4,3,4,
{8}3,4/2,1,2/4,3/5,{16}6,5,{8}7,8/1,
{16}3,4,{8}2,1-3[8:1],8-6[8:1],1-5[8:1],8-4[8:1],1>4[8:1],8,
{4}1b,{32}8b,7,6,5,{8}2,{32}8b,7,6,5,{8}1,{16}3,4,2,6,
5,7,2,8,{32}1b,2,3,4,{8}7,{32}1b,2,3,4,{8}8,{16}6,5,7,3,
4,2,7,1,{32}8b,7,6,5,{8}2,{32}7b,6,5,4,{8}1,{16}2,4,3,7,
5,6,1,8,2,4,3,5,4,6,5,7,4,4,5,5,
3,3,6,6,{32}2b,3,4,5,{8}8,{32}1b,2,3,4,{8}7,{16}6,5,7,3,
4,2,8,2,{32}1/7b,6,5,4,{8}1,{32}2b/8,3,4,5,{8}8,{16}7,1,5,3,
8,2,6,4,7-4[8:1],8,7,8,{8}7b,{16}2-5[8:1],1,2,1,{8}2b,
{16}7-4[8:1],8,6,8,{8}7b,{16}2-5[8:1],1,3,1,{8}2b,{4}8-4[8:1]*-6[8:1],
{16},,,,2-6[8:1],2,5,5,{8}2b,{16}8-4[8:1],8,3,3,{8}8b,
{16}5,6,7,8,{8}1b,{16}5/1-5[8:1],6/2,7/3,8/4,{8}5b/1b,
E
