&title=金星(kinboshi)
&artist=小野秀幸
&first=0
&des=AsukaHana
&lv_5=13+
&inote_5=(147)
{1},
{16}3h[16:3]/4,,,7h[16:3],,,5v3[16:3],,,,7,,6,,5,,
2h[16:3]/4,,,7h[16:3],,,5v2[16:3],,,,7,,6,,5,,
1h[16:3]/4,,,7h[16:3],,,5-1[16:3],,,,7,,6,,5,,
8h[16:3]/4,,,7h[16:3],,,5h[16:4],,,,2,,1/8z4[4:1]*v5[4:1],,72,,,,,,,,,,
1h[8:3]/2,,,3,,,4,,6h[8:3]/5,,,4,,,3,,1h[8:3]/2<4[8:3],,,,,,,,,,
8,,2,2h[16:3],,,7-4[16:3],,,4-1[16:3],,,2h[8:3],,,,,,8V24[4:1]*-6[8:1],,6pp4[8:6]/2,,,,,,,,,,3-8[8:1],,,,,,,,,,56,,7,,7h[8:1],,2,,5h[8:1],,1,,7h[8:1],,2-4[8:1],,
8h[8:1],,2-6[8:1],,7h[8:1],,2-4[8:1],,8h[8:1],,2,,7h[8:1],,5,5h[4:1],,,3,3h[4:1],,,1,1h[4:1],,,7-4[8:1],7,,,1-5[8:1],,,6^1[16:5],,,6h[16:6],,,,,,,,,,
1h[8:3]/2,,,3,,,4,,6h[8:3]/5,,,4,,,3,,12,,38,,2-5[8:1],1,,1,2,,8,,7,7h[16:3],,2,2^5[16:3],,,5<1[16:4],,,8>6[8:3],,8,,,,7,,7,,8,,67,,4,6,4,,2h[8:1],,5-1[8:1],3h[8:1],,7,5,,,,
43,,2,,2h[8:1],,7,,4h[8:1],,6,,2h[8:1],,7-5[8:1],,4h[8:1],,7-3[8:1],,1h[8:1],,7-5[8:1],,4h[8:1],,7,,1h[8:1],,6,6h[4:1],,,8,8h[4:1],,,2,2h[4:1],,,4,4h[16:3],,,6v4[16:3],,,4V61[8:3]/5V38[8:3],,,3,,,,,,,,,,
2v1[16:3],,,1-5[16:3]/8,,,7^4[4:1],,8,,,,2,,2,,2v8[16:3],,,8-4[16:3]/1,,,6^3[4:1],,7,,,,2,,2,,2v7[16:3],,,7-3[16:3]/1,,,8^5[4:1],,1,,,,2,,2h[16:13],,,,1,,3,,8,,6^3[8:1],,,6,,,,,1h[8:1]/3h[8:1],,,5h[8:1]/6h[8:1],,,4-8[8:1]/8,,,,47,,6,,5,,1h[8:1]/4h[8:1],,,5h[8:1]/7h[8:1],,,1-5[8:1]/2-6[8:1],,,,1b/2b,,,,,,
78,1h[8:1]/6h[8:1],,,,,12,3h[8:1]/8h[8:1],,,,,1V74[8:3]/8V25[8:3],2h[8:1]/7h[8:1],,,,,,,,,,,
7h[8:3],,,,5^2[8:1],,6,,5/8-4[8:1],,,,8/6h[16:7],,,,7^2[16:3],,,2,,,3,,4z8[8:3],,8,,7,,6h[8:3],,,,,,
1-5[8:1],,8,,6-2[8:1]/1,,,,6/4h[16:7],,,,3^8[16:3],,,8,,,7,,6,6,4,7,,,3,,
2h[8:3]/4,,,,4^7[8:1],,3,,4/1-5[8:1],,,,1/3h[16:7],,,,2^7[16:3],,,7,,,6,,5s1[8:3],,1,,2,,3,,4z8[8:3],,,,,,,,6,6,,,3,2h[16:3]/4,,,8,37,,5h[16:3]/6,,,7,,3,3,4-8[8:1],2,,,4b/5b,,
7h[8:3],,,,5^2[8:1],,6,,5/8-4[8:1],,,,8/6h[16:7],,,,7^2[16:3],,,2,,,3,,4,,13,,7-3[8:1]/8-3[8:1],,6,,7b/8b,,,,8-4[8:1],,1,,3-7[8:1]/8,,,,3/5h[16:7],,,,6^1[16:3],,,1,,,2,,3,3,5,2,,,3,,
2h[8:3]/4,,,,4^7[8:1],,3,,4/1-5[8:1],,,,1/3h[16:7],,,,2^7[16:3],,,7,,,6,,5>1[4:1],,,,1<5[4:1],,,,5>7[8:3],,,,,,,,3,3,,,6,7h[16:3]/5,,,1,62,,4h[16:3]/3,,,2,,1h[8:1]/8h[8:1],,,7h[8:1]/5h[8:1],,,4-8[1:1]*-8[1:1]/3,,,,,,,,,,,,,,,,,,2q6[8:7],,,,,,,,,,,,,,,,7^4[8:7],,,,,,,,1,,,2,,,3,,3h[4:3],,,,,,,,5h[4:1],,,,,,,,4h[8:1]/6h[8:1],,,3h[8:1]/5h[8:1],,,24,,3,4,3,5,3,6,,,5h[8:1]/3h[8:1],,,6h[8:1]/4h[8:1],,,75,,6,5,6,4,6,3,,,6,5h[8:1]/7h[8:1],,,,,3,2h[8:1]/4h[8:1],,,,,3p6[8:3]/7^2[8:3],4h[8:1]/8h[8:1],,,,,,,,,,,5,,,4,,,3,,3v5[4:1],,,,5V31[8:3],,,,6,,,,7,,,,8h[8:3],,,1,,,2^5[8:2],,2h[2:1],,,,,,,,6v4[4:1],,,,4V68[8:3],,,,3,,,,2,,,,1h[8:3],,,8,,,7^4[8:2],,7h[2:1],,,,,,,,3v5[4:1],,,,5V31[8:3],,,,6,,,,7,,,,8h[8:3],,,1,,,2>7[8:3],,2,,,,7^2[8:2],,,,2v5[8:2],,,,,,,,
{12}8,7,6,7,6,5,6,5,4,5,4,3,25,3,4,2-5[8:1]/5-2[8:1],4,3,
{16},,,,1-5[8:1]/7-5[8:1],,8,,7-3[8:1]/1,,,,7/4^1[8:1],,,,4/5,,,6-1[8:1],,,1,,2V86[4:1],,8V64[4:1],,6-4[8:1],,4,,,,,,
2-4[8:1]/6^1[8:1],,1,,2-6[8:1]/6,,,,8h[16:7]/2,,,,7^4[16:3],,,4,,,3,,2,2,5-1[8:1],3,,,45,,2,,,,
8-4[8:1]/2-4[8:1],,1,,2-6[8:1]/8,,,,2/5^8[8:1],,,,5/4,,,3-8[8:1],,,8,,7^4[4:1],,,,4pp8[2:1],,,,3h[4:1],,,,,,,,1,2/7h[16:3],,,5,4h[16:3]/6,,,8,37,,5h[16:3]/6,,,8,,1v4[16:1]/2,,,1v6[16:1]/8,,,1,,
{32}2,3,4,,,,7,6,5w1[8:1]/4,,,,3b/7b,,,,,,,,,,,,7,6,5,,,,2,3,4w8[8:1]/5,,,,2b/6b,,,,,,,,,,,,3b/8b,,3h[8:1]/8h[8:1],,,,,,,,,,1b-6[16:1]/5b-2[16:1],,1h[8:1]/5h[8:1],,,,,,,,,,,,,,,,,,,,,,,,,,,,,,,,,,,E
