&title=寄世界于东方
&artist=玛丽的对头/Snowf_Ake
&first=0.88000005
&des=
&des_5=蓬莱山香蒲
&des_6=
&lv_5=14
&inote_5=(194){4},{8},,,,,,4b,
4b,{1},,,{4},,5b,
{8}4b,4b,,,,,,,,,,,,,,,{1}8,
{2}1,{4}4/5bh[1:2],3,
{1}2>1[8:9],
{4},,4,3,
{8}8/2h[8:7],,,,,,,7,
{4}7h[4:3],{8},,,,5,5,
{4}5h[4:3],{8},,,,8,8,
8h[2:1],,,1,{4}1,2h[4:1],
{8}6h[8:3],,,3s7[16:11],,,,,,,,,{4}7x,
6,
{8}5h[8:7],,,,,,,4,
{16}6,,,7,,,{8}8h[2:1],{16}1,,,2,,,{8}3,
4h[8:3],,,8,,,{4}7qq3[8:5],
{8},,,,,,1,1,
{4}1h[4:3],{8},,,,8,8,
{2}8h[2:1],6h[2:1],
4h[2:1],2h[2:1],
8h[2:1],1b,
{16}6,2,{8}6,{16}3,7,{8}3,{16}6,2,{8}6,{16}3,7,{8}3,
{16}8,4,{8}8,{16}3,7,{8}3,{16}8,4,{8}8,{16}3,7,{8}3,
{16}6,2,{8}6,{16}1,5,{8}1,{16}6bx,2,{8}6,{16}1,5,{8}1,
{16}4bx,8,{8}4,{16}1,5,{8}1,{16}4bx,8,{8}4,{16}1,5,{8}1,
{16}7bx,3,{8}7,{16}2,6,{8}2,{16}7,3,{8}7,{16}2bx,6,{8}2,
{16}5,1,{8}5,{16}2,6,{8}2,{16}5,1,{8}5,{16}2,6,{8}2,
{16}7,3,{8}7,{16}4,8,{8}4,{16}7bx,3,{8}7,{16}4,8,{8}4,
{16}1bx,5,{8}1,{16}4,8,{8}4,2bx/5bx,3bx/4bx,6bx/1bx,8bx/7bx,
{16}7,8,{8}7-4[8:1],7,8-3[8:1],8,5,5,6/1,
{16}3,4,{8}3,5/2,6,4/3,4/3,{4}2b/5b,
{16}2,1,{8}2-5[8:1],2,1-6[8:1],1,4,4,3/8,
{16}6,5,{8}6,4/7,3,5/6,5/6,{4}7b/4b,
{16}7,8,{8}7,6/1-4[8:1],5,{4}1-6[8:1],1pp6[8:3],
8h[4:3],{8},,,,1,8,
2,4<7[8:1]/3q7[8:1],,4/3,,1,2,4/3,
7,6/5,2,4/3,{2}8/1,
{16}2,1,{8}2,3/8-5[8:1],4,{4}8-3[8:1],8pp5[2:1],
{8}8/4,,,3h[8:3],,,5,6,
{16}7/4-8[8:1],,,5,{8}4,7,{16}2/5-1[8:1],,,4,{8}5,2,
{2}4v7[8:1]/3v8[8:1],{8}6bx/1bx,4bx/7bx,5bx/2bx,8bx/3bx,
{16}2,1,{8}2,3/8-5[8:1],4,{4}8-3[8:1],8qq3[8:3],
1h[4:3],{8},,,,8,2,
7,5>2[8:1]/6p2[8:1],,5/6,,8,7,5/6,
2,3/4,7,5/6,{2}1/8,
{16}7,8,{8}7,6/1-4[8:1],5,{4}1-6[8:1],1qq4[2:1],
{8}8h[8:5],,,,,3,2,1/6,
{16}8b,7,{8}8,6,5b/2b,{16}4,3,{8}4,2b,1b/6b,
{16}7,8,{8}7,1,5/2,{16}3,4,{8}3,5,6/1,
{4}7-4[8:1],1-5[8:1],6-1[8:1],2-5[8:1],
8-4[8:1],3,3-8[8:1]/7-4[8:1],7/3,
2-5[8:1],8-4[8:1],3-8[8:1],7-4[8:1],
1-5[8:1],7,8w4[8:1],8b<8[1:2]*>8[1:2],
,,,,,,,,,,,,,,,,{1}7h[1:1],
,2h[1:1],
{8},,,,,,5,6,
{4}7h[2:1],{8}8,1,2,3,{4}4q7[2:1],
{8}2h[8:5],,,,,8,1,2,
{4}3h[4:3],{8}2,1,8,7,6,5,
{4}4V28[4:1],7h[8:3],{8},,4,3,
{4}2h[8:5],{8}1,8,7,6,{4}5p2[2:1],
{8}7h[8:5],,,,,1,1,8,
8h[8:1],7,7h[8:1],6,6h[8:1],5,5h[8:1],4>7[4:1],
{2}2h[2:1],{4}6h[4:1],4h[4:1],
6<1[8:1],3>8[8:1],5v2[8:1],4v7[8:1],
{8}6,6,8-6[8:1]/1-5[8:1],7/2,{4}8-4[8:1]/1-3[8:1],1/8,
{16}6<1[8:1],5,{8}7,6,3,{16}3>8[8:1],4,{8}2,3,5,
1bx/5h[1:1],1b,1b,1b,{2}1b,
{16}3,5,3,5,{8}2,1,{2}4h[4:1]/8h[4:1],
{8}1-5[8:1],5-3[8:1],1,7<4[8:1],7,2-5[8:1],2,6,
7,8/3,2,6/1,7,8/3,1-5[8:1],3,
{4}8-4[8:1],7-3[8:1],1,{8}7,7,
{4}4v7[8:1],5v2[8:1],3>8[8:1],6<1[8:1],
{8}4,3,2x-4[8:1]/1x-5[8:1],3/8,{4}2-6[8:1]/1-7[8:1],1/2,
{16}3>8[8:1],4,{8}2,3,6,{16}6<1[8:1],5,{8}7,6,4,
8b/4h[1:1],6b,2b,8b,{2}6b,
{16}6,4,6,4,{8}7,8,{2}1-6[8:1]/5-2[8:1],
{8}8-4[8:1],4-6[8:1],8,2>5[8:1],2,7-4[8:1],7,3,
2,1/6,7,8/3,2,1,8-4[8:1],6,
{4}1-5[8:1],2-6[8:1],4,{32}B3,B2,B1,B8,B7,B6,B5,B4,
{1}5h[1:1],
3h[1:1],
5h[1:1],
{2}4h[1:1],{4}6b,7b,
8h[4:1],{8}2-6[8:1],3h[8:3],{4}2,{8}7-5[16:3],8,
2-6[8:1],3,7-4[8:1],8,3-1-5[4:1],2,6,6,
7-4[8:1],7,1-5[8:1],1,6-1[8:1],6,3,3,
{4}8h[1:1],{8}2q5[8:3],2,,,,,{4}2h[4:1],
{8}7-3[8:1],6h[8:3],{4}7,{8}2-4[16:3],1,
7-3[8:1],6,2-5[8:1],1,6-8-4[4:1],7,3,3,
2-5[8:1],2,8-4[8:1],8,3-8[8:1],3,6,6,
{1}7p4[2:1]/1q4[2:1],
{4}6h[8:3],{8}5,4,{4}3h[4:1],{8}2,1,
8/4,4,2/6,6,8/4,6/2,4/8,2/6,
3,7,1,5,7,4,6,2,
{4}8h[1:1],{8}4,4,,,,,{4}3h[8:3],
{8}4,5,{4}6h[4:1],{8}7,8,
1/5,6/2,7/3,8/4,1/5,3/7,5/1,7/3,
6,2,8,4,2,5,3,7,
{2}4h[2:1],{4}7h[4:1],4>1[4:1],
1<6[4:1],6>3[4:1],3>8[4:1],8<5[4:1],
5v2[4:1],{8}8,8h[8:3],,6,{4}6h[4:1],
4<7[4:1],7>2[4:1],2>5[4:1],5<8[4:1],
{2}1h[2:1],{4}4p8[4:1],8p4[4:1],
4<7[4:1],7>2[4:1],2>5[4:1],5<8[4:1],
{2}8>3[4:1],{4}8<5[4:1],5>2[4:1],
2<7[4:1],7-4[4:1],4-1[4:1],1-6[4:1],
{2}6>3[4:1],8h[2:1],
{4}5<8[4:1],8>3[4:1],3-8[4:1],8>3[4:1],
3<6[4:1],6<1[4:1],1-6[4:1],6<1[4:1],
1>4[4:1],4<7[4:1],7-4[4:1],4>1[4:1],
{2}8h[1:1],{4}5,3,
2h[4:3],,,5<8[8:1],
5>2[8:1],5-1[8:1],5-8[8:1]*-2[8:1],5,
1-5[8:1]*-3[8:1],1-4[8:1]*-6[8:1],1-7[8:1]*-5[8:1],1w5[8:1],
{2}1,1b,
{4}5b/4b,4b/5bh[2:3],{8}B2,B3,,B8,
B1,B2,{16},,B1,B2,{4}B3,4x,
4b/5b,5b/4bh[16:23],{8}B7,B6,,B1,
B8,B7,,8x,{16}8x,7x,6x,5x,,,,,{4}5b/4b,
4b/5bh[2:3],{8}B2,B3,,B8,
B1,B2,{16},,B1,B2,{4}B3,4,
4b/5bh[4:3],,,1,
5b/4bh[4:3],6,7,8,
{2}4b/5bh[2:1],2h[2:1],
8h[16:7],{16}7,6,5,2,3,4,{8}5b,
{16}7,5,{8}7,{16}2,4,{8}2,{16}6,4,{8}6,{16}3,5,{8}3,
{16}6,5,{8}7,{16}3,4,{8}2,{16}5,4,{8}6,{16}4,5,{8}3,
{16}6,5,{8}8,{16}3,4,{8}1,{16}5,4,{8}7,{16}4,5,{8}2,
{16}6,8,{8}5,{16}3,1,{8}4,{16}5,4,{8}7,{16}4,5,{8}2,
{16}6b,8,{8}6,{16}3,1,{8}3,{16}7,1,{8}7,{16}2,8,{8}2,
{16}7,8,{8}6,{16}2,1,{8}3,{16}8,1,{8}7,{16}1,8,{8}2,
{16}7,8,{8}5,{16}2,1,{8}4,{16}8,1,{8}6,{16}1,8,{8}3,
5b/4b,2b/4b,1b/8b,7b/5b,{32}4,3,2,1,8,7,6,5,4,3,2,1,8,7,6,5,
{4}4b/8b,{8}5/6,4/7,{4}8/3-5[8:1],{8}3/7-1[8:1],6,
7/2-4[8:1],3,2/8-6[8:1],7,{4}8/2,{8}3/4,5/2,
{4}6/1,{8}2/1,3/8,{4}7/4-8[8:1],{8}4/6-1[8:1],5,
6/2-5[8:1],3,2/8-4[8:1],7,{4}8/3,{8}5/6,4/7,
{4}8/3,{8}7/8,6/1,{4}5/2-5[8:1],{8}2/7-4[8:1],8,
{16}7/2-5[8:1],,,8,{8}8,7,3h[4:1]/8-5[8:1],,,2,
{4}3-8[8:1],{8}4,5,6,7,{4}8v3[8:1]/7v4[8:1],
{2}8b/7b,{8}2b/6b,1b/5b,8b/4b,7b/3b,
1,2-8-4[4:1],3,4-1[8:1],{4}5,{8}8,7p5[4:1],
6,5-8[8:1],4,3,{4}2,{8}3,4-2-6[4:1],
5,6-3[8:1],7,8,{4}1,{8}8p6[4:1],7,
6-1[8:1],5,{4}4h[8:1],{8}3b/4,7b/1,5b/6,3b/2,
{4}1b<6[8:1],{8}1/3,4,2h[8:3],,,8-6-2[4:1],
1,2-4-8[4:1],3,4,{4}5h[4:1],{8}1,8,
{4}7h[4:1],{8}1,2,3-6[8:1],4,{4}5p4[4:1],
{1}5b/4>5[8:3],
{8}1-7[8:1],5,1-3[8:1],5,1-6[8:1],5,1-4[8:1],5,
1-5[8:1],5V31[4:1],6,6,7,8h[4:1],,3,
7-1[8:1],3,7-5[8:1],3,7-2[8:1],3,7-4[8:1],3,
{4}2x-8[8:1]/7-3[8:1],7/2-5[8:1],{2}2-6[16:1]/7-1[8:1],
{8}4-7[8:1],5,4-1[8:1],3,4-7[8:1],5,4>1[8:1],3,
5<8[8:1],6,4p8[8:1],3,5q1[8:1],6,,,5-2[8:1],
4,5-8[8:1],6,5-2[8:1],4,5<8[8:1]*-8[8:1],6,
{4}5-2[8:1]*>2[8:1],5-1[8:1],{2}5w1[8:1],
{8}3-8[8:1],3,5,6,{16}7/1v4[8:1],,,8,{8}1/8,7,
{16}1v6[8:1],,,2,{8}2/1,3,{4}4-8[8:1],4/7h[4:1],
{8}2-6[8:1],3,4-8[8:1],5,{16}7h[4:1],,,1,{8}1<1[2:1],2,
{4}3h[4:3],{8},,,,7,6/2,
5h[8:5]/1>6[4:1],,,,,8,1/6,2/7,
8/3>8[8:1],4,5-1[8:1],6,7,8,7/1,6/2,
{4}5h[8:5]/3h[8:5],{8},,,,6/4,6/4,
{4}7b/5b,4b/2b,{16}4,6,{8}5,{16}7,5,{8}6,
3/6-1[8:1],6,4,3,{16}2/8v5[8:1],,,1,{8}8/1,2,
{16}6/8v3[8:1],,,7,{8}7/8,6,{4}5-1[8:1],5/2h[4:1],
{8}7-3[8:1],6,5-1[8:1],4,{16}2h[4:1],,,8,{8}8>8[2:1],7,
{4}6h[4:3],{8},,,,2,3/7,
4h[8:5]/8<3[4:1],,,,,1,8/3,7/2,
1/6<1[8:1],5,4-8[8:1],3,2,1,2/8,3/7,
4/6h[8:5],,,,,4,3/5pp5[4:1],2,
{2}2h[2:1],{8}8,7/4,{16}6,5,{8}6,
7-3[8:1],8/6,{4}7,{8}2-6[8:1],3/1,{4}2,
{8}8-4[8:1],1/7,{4}8,{8}1-5[8:1],2/8,{4}1,
{8}4-8[8:1],5/3,{4}4,{8}5-1[8:1],4/6,{4}5,
{8}3-7[8:1],2/4,{4}3,{8}6-2[8:1],5/7,{4}6,
{16}7-3[8:1],6,{8}5,{4}7/8,{16}2-6[8:1],3,{8}4,{4}2/1,
{16}8-4[8:1],7,{8}6,{4}8/2,{16}1-5[8:1],2,{8}3,{4}1/7,
{16}6-2[8:1],7,{8}8,{4}6/5,{16}3-7[8:1],2,{8}1,{4}3/4,
{16}1/8w4[8:1],7/2,{8}6/3,{4}8b,{16}8/1w5[8:1],2/7,{8}3/6,{4}1b,
{1}7bh[4:7]/3bh[4:7],
{8},,,,,,,,5/4,
1/2,8/7,5/6,3/4,8/6,5/4-6[8:1]*-7[8:1],1/3,
{4}4-2[8:1]*-1[8:1],4w8[8:1],{8}4b,{16},,,,4,5,
{8}4,6h[4:1],7,2h[4:1],1,8h[4:1],7,3h[2:1],
4,5,6,7,{4}2-5[8:1]/8-5[8:1],8/2,
{8}6-1[8:1],7,3-8[8:1],2,7-4[8:1],6,2-7[8:1],1,
5-2[8:1],5-1[8:1],{4}5-8[8:1],{8},,,,6/7h[2:1],
5,4,3,2h[4:1],6,7,{16}8,1,
{4}8-6[8:1],8-2[8:1],8-4[8:1]*-4[8:1],8b,
{8}5/3,5/2,5/1,4/5,6/4,7/4,8/4-1[8:1]*-2[8:1],4/5,
{4}4-7[8:1]*-6[8:1],4w8[8:1],{8}4,{16},,,,5,4,
{8}5,3h[4:1],2,7h[4:1],8,1h[4:1],2,6h[2:1],
5,4,3,2,{4}7-4[8:1]/1-4[8:1],1/7,
{8}3-8[8:1],3,3/6-1[8:1],6,6/2-6[8:1],2,2/7-3[8:1],7,
7/4-7[8:1],4x-8[8:1],4x-1[8:1],4x,{2}4x,
(180){8}1h[16:61],8,7,6,5,4,3,2,
{16}8,7,6,5,4,3,2,8,7,6,5,4,3,2,8,7,
6,5,4,3,2,8,7,6,5,4,3,2,{24}8x,7,6,5,4,3,
2,8,7,6,5,4,3,2,8,7,6,5,{32}4,3,2,8x,7,6,5,4,3,2,{16}8,,,,
,,C,,,,,,,,B8,,,{8}B1,
{16},B4,,B5/B6/E6,,,,,,,,B1,,,{8}B8,
{16},B5,,B4/B3/E4,,,,,,,,,,E8,,B8,
,B1,,E2,,,{8}E4,{16},B4,,B5,,,{8}E6,
{16},C,,B7/E8/B8,,,,B4,,B3,,,,,,B8,
,,,B7/E7,,,,,,,,A1,,,{8}A5,
{16},A6,,A2,,,,A7/A3,,E6/E2,,,,,,5,
,5,,4,,4,,7,,7,,4,,4,,8,
,8,,4/5h[2:1],,,,3,,,,4bh[16:3],,,{8}5,
{16},6,,7/1h[2:1],,,,,,,,6bh[8:3],,,{8}4,
{16},3,,2/8h[2:1],,,,,,,,3bh[2:1],,,{8}4,
{16},5,,6bh[16:3],,,{8}5,{16},4,,3bh[8:3],,,{8}7,
{16},6h[8:1],,5-8[8:1],,,,5,,4h[4:1],,,,3,,2,
,2,,1-5[8:1],,,,1,,7,,8/4,,,{8}7/3,
{16},2qq6[4:5]/6qq2[4:5],,6/2,{1},{4},{16},,,8,
7,6,5,8-5[8:1]/4-1[8:1],
3,2,1,4b/8b-4-1[4:1],,,,8/4,,6h[4:1],,,,2,,3/8-5[8:1]*-3[8:1],
,4,,8b-4-7[4:1],,,,8/2,,3h[8:3],,,,,,8<5[8:1]*>3[8:1],
,,,8b-4-6[16:3],,,,4/8,,3,,,,7b/4b,,8b/3b,
,1b-5[8:1]/2b-6[8:1],,2b/1b,,,,,,7/4>1[8:1],,8,,4,,8<5[8:1]*>3[8:1],
,,,8b-5-1[4:1],,,,4/8,,3-6-2[16:3],,,,7/3,,8<5[8:1]*>3[8:1],
,1,,8b-3-7[16:3],,,,8/4,,5-2-6[4:1],,,,5,,6,
,7,,8V64[8:1],,,,8,,1-5[8:1],,,,1,,8,
,7,,6v1[8:1]/4v1[8:1],,,,,,,,7b/3b,,,,5<8b[8:1]/1>4b[8:1],
,,,5/1b-5-8[4:1],,,,1/5,,3h[4:1],,,,7,,6/1-6b[8:1]*-4b[8:1],
,5,,1b-5-2[4:1],,,,1/7,,6h[8:3],,,,,,1<6b[8:1]*>4b[8:1],
,,,1b-5-3[16:3],,,,5/1,,6,,,,2b/5b,,1b/6b,
,8b-4[8:1]/7bv4[8:1],,7b/8b,,,,,,2/5<8[8:1],,1,,5,,1<6b[8:1]*>4b[8:1],
,5,,1b-4-8[4:1],,,,5/1,,6-3-7[16:3],,,,2/6,,1<6b[8:1]*>4b[8:1],
,8,,1b-5[8:1],,,,1/7,,8,,1b/4b,,,{8}5b/8b,
{16},6b/7b,,5,6,4,7,3,8,2,1,3,8,4,7,5,
6,4,7,{48}1/8,,2,,3,,4,,5,,6,,{16}7,{24}8,1,2,3,4,5,6,7,8,1,2,3,
4,5,6,7,{48}8<4[0.3333##0.1667],,,,,,,{16}4,,3,,2,,1>5[8:1],,5,,6,
,7,,8<4[8:1],,4,,3,,2,,1-5[8:1],,1,,8<4[8:1],
,8,,1>5[8:1],,1,,6,,7,,8<4[8:1],,4,,3,
,2,,1>5[8:1],,5,,6,,7,,8-4[8:1],,8,,1>5[8:1],
,1,,7-3[8:1],,7,,1q6[8:1],,1,,6,,7,,8p3[8:1],
,3,,2,,1>5[8:1],,1,,8<4[8:1],,8,,1q6[8:1],,1,
,5v7[8:1],,5,,3,,2,,1>5[8:1],,8,,7p3[8:1],,7,
,4v2[8:1],,4,,6,,7,,8<4[8:1],,1,,2q6[8:1],,2,
,7,,8,,1,,2,,3/4,,5,,6,,7/8,
,1,,2,,3,,4,,5/6,,7-5[8:1],,8-4[8:1],,7,
,8,,1,,8,,7,,6/5,,4,,3,,2/1,
,8,,7,,6,,5,,4/3,,2-4[8:1],,1-5[8:1],,2,
,1,,3h[4:1],,8,,5h[4:1],,8,,3h[4:1],,8,,5h[4:1],
,8,,3h[4:1],,B8/B7,,5h[4:1],,B8/B7,,2-6[8:1],,7-1[0.3333##0.1667],,2,
,7,,(160),{8}5,4,3,2,1,8,
{16}7,,,(130)6,,5,,4,,3,,2b,,1b,{64},,,,,,,,8b,
,,,,,,,,,,7b,,,,,,,,,,,{32}6b,
E
&inote_6=
