&title=青く駆けろ!
&artist=青春/friends(星乃一歌、天馬咲希、桃井愛莉、東雲絵名) × 初音ミク
&first=0.028
&des=Tane
&lv_5=13+
&inote_5=(190){1},
{8}3h[2:1],,,,
{16}8,,8,7,
6h[1:1],,,,
{8}4q5[2:1],,,,
,,,,
{8}6h[2:1],,,,
{16}1,,1,2,
3h[1:1],,,,
{8}5p4[2:1],,,,
,,,,
{8}2h[2:1],,,,
{16}7,,7,6,
5h[1:1],,,,
{8}2qq4[2:1],,,,
,,,,
{8}7h[2:1],,,,
{16}2,,2,3,
4h[4:1],,,,
{8}8h[4:1],,6h[4:1],,
4h[4:1],,2,,
{8}2bqq4[2:1]/5b,25,,,
{16}5,,5,6,
7h[2:1],,,,
{8}4,,4,3/7h[4:1],
,3,4/7,,
{8}7pp5[2:1]/4,,4,,
{16}4,,4,3,
2h[8:1],,,,
{8}2b/6b,3,5,3b/7b,
,5,1b,26,
{8}35,3,3,36,
3,3,37,7,
{8}73,7,7,74,
{16}7,,75,,
7,,8-4[8:1],,
{8},8,3,3,
2-5[8:1]/5,,2,7-4[8:1],
{8},7,1,1,
25,8,47,1,
{8}1s5[2:1],,7,,
7,,7,,
{8}7,4,8z4[2:1],,
1h[4:1],,,,
{8}2s6[2:1],,7,,7,,7,8h[8:3],
{8},,,,
8,1,2,,
{8}2/3-6[8:2],,2,,
2,,2/7pp7[8:4],,
{8}2,,2,,
2,,27,,
{8}45,,45,52,
,45,4/7>4[2:1],,
{8},,,,
,,6,,
{8}7/3-6[8:2],,7,,
7,,7/5p2[8:4],,
{8}7,,7,,
7,,72,,
{8}18,,18,82,
,18,7<2[8:3]/1,,
{8},,1-4[8:1],,
{8}8-5[8:1],,2,,
{8}4V25[4:1],4,5-1[8:1],,
6,6,7,7,
{8}8^5[8:1],8,3V14[4:1],,
4pp4[4:1],,,,
{8}8v1[8:1],,4,3^6[8:1],
,8,7-2[8:1],,
{8}3-6[8:1],,5-8[8:1],,
1-4[8:1],,,,
{8}5V74[4:1],5,4,,
3^8[4:1],,2,,
{8}7^4[4:1],,6,,
3^8[4:1],,1,,
{8}7^4[4:1],,5,,
3>5[8:3],,7,,
{8},,7,8,
1,2q5[2:1],,,
{8}7,,7,,
7,7,8,1,
{8}25,1,8,7p4[8:3]/4,
,1,1,,
{8}2,,2,,
52,2,1,8,
{8}74,8,1,2q5[8:3]/5,
,8,8,,
{8}7,,7,,
74,7,8,1,
{8}25,1,8,7p4[8:3]/4,
,1,1,,
{8}2,,1,25,
,8,4/7-4[8:1],,
{8}2-5[8:1]/7,,2/8-4[8:1],,
1-5[8:1]/8,,18,,
{8}7^4[8:1],,78,1-5[8:1],
,18,7-4[8:1],,
{8}7/2^5[8:1],,21,8-4[8:1],
,81,2-5[8:1],,
{8}2/7^4[8:1],,78,1-5[8:1],
,18,7-4[8:1],,
{8}7/2^5[8:1],,21,8-4[8:1],
,81,2,,
{8}2^5[8:1],2,8-4[8:1],8,
1-5[8:1],1,7^4[8:1],7,
{8}2-6[8:1],2,1-5[8:1],1,
8-4[8:1],8,7,7,
{8}2b/6b,,,1b/5b,
,,4b/8b,,
{8}37,,2/6<3[8:2],,
,,5-2[8:1],,
{8}6-2[8:1],,7-2[8:1],,
8,,12,3V52[4:1]/8V62[4:1],
{8},,,,
1,,78,1V37[4:1]/6V47[4:1],
{8},,,,
8,,18,2b-6[8:1]/7b,
{8},2b/8b-4[8:1],,8b/4b,
,,{16}5,4,5,,
{8}1pp1[8:3],,,6,
6,,7,7,
{8}8qq8[8:3],,,3,
3,,2,2,
{8}1-4[8:1],,5,,
8-5[8:1],8,4,4-8[8:1],
{8},6-2[8:1],,1-5[8:1],
,8,,7,
{8}5,6,,6^3[4:1],
8,6,,7,
{8}5,6,,6v3[4:1],
8,6,,7,
{8}5,6,,6p3[8:3],
8,6,,,
{8}8b-5[8:1]*-5[8:1],,8b-3[8:1]*-3[8:1],,
8b-4[8:1]*-4[8:1],,8w4[8:1]*-5[8:1]*-3[8:1],,
{8},,,18,
2-4[8:1]/7-5[8:1],,27,,
{8}18,27,,27,
1-4[8:1]/8-5[8:1],,18,,
{8}3-1[8:1],3,6-8[8:1],6,
4-1[8:1],4,5-8[8:1],5,
{8}4,4,36,36,
27,27,18,18,
{8}7/2-4[8:1],,2,7,
2-5[8:1],,2,8,
{8}2-6[8:1],,2-4[8:1],1,
2-5[8:1],7,2,8,
{8}2/7-5[8:1],,7,2,
7-4[8:1],,7,1,
{8}7-3[8:1],,7-5[8:1],8,
7-4[8:1],2,7,1,
{8}7/2-4[8:1],,2/7,8,
2-5[8:1]/7,,27,8,
{8}2-6[8:1]/7,,2-4[8:1]/7,8,
2-5[8:1]/7,7,8,8,
{8}2/7-5[8:1],,7/2,1,
7-4[8:1]/2,,72,1,
{8}7-3[8:1]/2,,7-5[8:1]/2,1,
7-4[8:1]/2,2,1,1,
{8}6/1^3[8:1],,1/6,7,
8^6[8:1]/4,,38,2,
{8}1-4[8:1]/5,,1-5[8:1]/7,8,
1-3[8:1]/7,6,7/1-4[8:1],8,
{8}1/8^6[8:1],,8/3,2,
1^3[8:1]/5,,61,7,
{8}8-5[8:1]/4,,8-4[8:1]/2,1,
8-6[8:1]/2,3,2/8-5[8:1],1,
{8}8/1-5[8:1],,8-4[8:1]/1,7,
8^6[8:1]/1,,8/1-5[8:1],2,
{8}1^3[8:1]/8,,1-5[8:1]/7,8,
1-3[8:1]/7,6,7/1w5[8:1],8,
{8},,,6,
5,4>5[2:1],3,2,
{8},,,,
1-5[8:1],,,,
{8}6,4,5,3,
{16}2,,1,8,
7,,6,,
{8}4,5,3,6,
,4,5,6,
{32}7,,,,6,,,,
,,5,,,,,
,4,,,,,,3,
,,,,,,,,
{32}2,,,,,,,,
,,,,,1,,
,,,,,,,,
,,,,,,,,
{32},,,,,,8b,
,,,,,,,
,,,,,,,,
,,,,,,,,
