&title=哈雪大帽险
&artist=暗杠读秒p
&first=-0.2
&des={64},,,,,,i,,,,,,,i,,,,,,,i,,,,,,,i,,,,,,,,n,,,,,,,,n,,,,,,,,n,,,,,,,,,,,k,,,,,,,,,,,,,,,k,,,
&clock_count=4
&lv_5=13+
&inote_5=(130.5)
{1},
,
{4}4/5<6<7>8-5q1>2p5qq2b[2:7],A6,,A7,,E7,,E8,,B8,,B7,,B6,,B6f/E7/E6,
{8}2,2v4[8:1],4p8[8:1],6h[8:1],,7,8/2h[8:1],,7,7v5[8:1],5q1[8:1],3h[8:1],,2,1/7h[8:1],,
{8}2,2pp4[8:1],4p8[8:1],6h[8:1],,7,8/2h[8:1],,7,7qq5[8:1],5q1[8:1],3h[8:1],,2,8/7h[8:1],1,
{8}2,2v4[8:1],4p8[8:1],6h[8:1],,7,1/2h[8:1],8,7,7v5[8:1],5q1[8:1],3h[8:1],,2,8/7h[8:1],1,
{8}2,2pp4[8:1],4p8[8:1],6h[8:1],,7,1/2h[8:1],8,7,7qq5[8:1],5q1[8:1],3h[8:1],,2V48b[4:1],1x/7x,B6hf[8:1],
{8},,7/1,{16}3,4,{8}1h[8:1],8-4-2[4:1],7,E6h[8:1],,,8/3,{16}6,5,{8}8,7V51b[4:1]/1,2,B3hf[8:1],
{8},,2/8,{16}6,5,{8}8h[8:1],1-5-7[4:1],2,E4h[8:1],,,1/6,{16}3,4,{8}2,3V51b[4:1]/1,8,B7hf[8:1],
{8},,8/2,{16}6,5,{8}8h[8:1],1-5-3[4:1],2/7,B6h[8:1],,,8/2,{16}6,5,{8}7,6V48b[4:1]/8,1,B2hf[8:1],
{8},,1/7,{16}3,4,{8}1h[8:1],8-4-6[4:1],7/2,B3h[8:1],,,1/7,{16}2,4,{8}3bh[8:1],1bh[8:1],8bh[8:1],6bh[8:1],
{4}5x<6<7>8-5q1>2p5qq2b[2:7],A6,,A7,,E7,,E8,,B8,,B7,,B6,,B6f/E7/E6,
{8}2h[8:1],4,8/1,{16}6,5,{8}7-4[8:1],4-8[8:1],7,2,3h[8:1],1,8-4[8:1]/4,{16}7,5,{8}8-3[8:1],2,8/6,7,
{8}7h[8:1],5,1/8,{16}3,4,{8}2-5[8:1],5-1[8:1],2,7,6h[8:1],8,1-5[8:1]/5,{16}2,4,{8}1-6[8:1],7,1/3,2,
{8}2h[8:1],4,8/1,{16}6,5,{8}7-4[8:1],4-8[8:1],7,2,3h[8:1],1,8-4[8:1]/4,{16}7,5,{8}8-3[8:1],2,8/6,7,
{8}7h[8:1],5,1/8,{16}3,4,{8}2-5[8:1],5-1[8:1],2,7,6h[8:1],8,1-5[8:1]/5,{16}2,4,{8}1-6[8:1],7,1/3,2,
{8}8/7,1,6q4>3[2:1]*p5>3[2:1],2,6,,,,,,2>3-7-5>4[2:1]/7<6-2-4<5[2:1],1/8,2/7,,,,
{8},,6<7-2-7<6[2:1]/2>3-6-3>2[2:1],8/4,6/2,,,,,,5>4v2<8[2:1]*>4v6<8[2:1],3/7,5,,,,
{8},,5<6-3-1[2:1]*<6-1-3[2:1],4/7,5,,,,,,8<6-3>1[2:1]*<7-2<1[2:1],1,8,,,,
{8},,8-5>4<5-8[2:1]/4-1<8>1-4[2:1],7/3,8/4,,,,,,4V28b[4:1]*V68b[4:1],B8/B2/B6,4,,,,
{8}6h[4:1],,B2/E3/B3,{16}7,5,8,2,{8}1,7-5[8:1]/3,,3h[4:1],,B7/E7/B6,{16}2,4,1,7,{8}8,2-4[8:1]/6,6,
{8}7h[4:1],,B2/E3/B3,{16}6,5,8,1,{8}7,6-4[8:1]/2,,2h[4:1],,B7/E7/B6,{16}3,4,1,8,{8}2,3-5[8:1]/7,2,
{8}8h[4:1],,B2/E3/B3,{16}7,1,5-3[8:1],4,{8}6,7-5[8:1],7,1h[4:1],,B7/E7/B6,{16}2,8,4-6[8:1],5,{8}3,2-4[8:1],2,
{8}7h[4:1],,B3/E3/B2,{16}6,4,7-5[8:1],3,{8}8,4x-8b[8:1],3x-1b[8:1],A4f,A3f,6x-2b[8:1],E8/B8f/E1,A6f/4xw8[8:1],,B4f/E5/E4,,
{8}6h[8:1],2,8/3V17[8:1],{16}4,5,{8}3,4v6[8:1],4,8,8h[8:1],7,6/5,{16}7,6,{8}7,8-5[8:1]/5,8/5,4,
{8}3h[8:1],7,1/6V82[8:1],{16}5,4,{8}6,5v3[8:1],5,1,1h[8:1],2,3/4,{16}2,3,{8}2,1-4[8:1]/4,1/4,5,
{8}6h[8:1],2,8/3V17[8:1],{16}4,5,{8}3,4v6[8:1],4,8,8h[8:1],5,6/5,{16}7,6,{8}7,8<5[8:1]/5,8/5,4,
{8}3h[8:1],7,1/6V82[8:1],{16}5,4,{8}6,5v3[8:1],5,1,1h[8:1],4,3/4,{16}2,3,1,1,5,5,3,3,7,7,
{8}2h[8:1],6,5/4,{32}4,3,2,1,{8}8>3[8:1],4-8b[8:1],8pp6[8:3],4,B3/E4/B4,5,5-2[8:1],,5/1-6[8:1],,1/3,,
{8}7h[8:1],3,4/5,{32}5,6,7,8,{8}1<6[8:1],5-1b[8:1],1qq3[8:3],5,B6/E6/B5,4,4-7[8:1],,4/8-3[8:1],,8/6,,
{8}2h[8:1],6,5/4,{32}4,3,2,1,{8}8>3[8:1],4-8b[8:1],8pp6[8:3],4,B3/E4/B4,5,5>2[8:1],,5<8[8:1]/1,,5/3,,
{8}7h[8:1],1-6[8:1],2-5[8:1],1,2,7-4[8:1],7,8,1-5[8:1],2pp6[8:3],1,2b,{4},7h[8:1],
{8}7/8,6,1/5,{16}6,3,4pp8[8:3],2,{8}5,1-3[8:1]/4,2,1<6[8:1],,1/4-8[8:1]*-7[8:1],3,4,,1/6,2,
{8}2/1,3,8/4,{16}3,6,5qq1[8:3],7,{8}4,8-6[8:1]/5,7,8>3[8:1],,8/5q1[8:1]*v2[8:1],6,5,,8/3,7,
{8}7/8,6,1/5,{16}6,3,4pp8[8:3],2,{8}5,1-3[8:1]/4,2,1<6[8:1],,1/4-1[8:1]*-7[8:1],3,4pp7b[8:3]*qq1b[8:3],,B4f/E4/E5,,
{8},,8/3,7,6<2[8:1]/2v4[8:1],,6x/2x,,B7/B6/E7/B2/B3/E3,,8/1,2,3/6,4bh[8:1]/5bh[8:1],,8b>1p5>4[8:3]/1b<8q4<5[8:3],
{2}7b/2b,{8},{64}E6,B5,B4,E4,{16},{8},{64}E2,B1,B8,E8,{16},{64}E6,B5,B4,E4,{16},{8},5/6,4,3/7,1h[8:1]/2h[8:1],,8xp3[8:3]`7xqq4[8:3],
{2}1/6,{8},E2/B2/E3,,E8/B7/E7,E5/B4/E4,,8/7,6,5h[4:1]/1,,B2/E3/B3,7xv6-4[2:1]`1x-5qq5b[2:1],
{2}7/1,{4},{8}B1/E2/B2,6xv5-3[2:1]`8x-4qq4b[2:1],{2}6/8,{4},{8}2-8[8:1]/3-5[8:1],,
{2}2-7[8:1]/3-6[8:1],{8},8/5,1,2,3/6<8-5[4:1],,5q4[4:1],,3,2,1w5b[12:1],,
{64}1bx,B1f,Cf,B6/B5f/B4,A6/D6/A5f/D5/A4,,,,{8},{2}6x<1[8:1]/E5hf[8:1]/B4hf[4:1]/E4hf[8:3],6x-1[8:1]/E3hf[8:1]/B2hf[4:1]/E2hf[8:3],3x>8[8:1]/E7hf[8:1]/B7hf[4:1]/E8hf[8:3],3x-8[8:1]/E6hf[8:1]/B6hf[4:1]/E7hf[8:3],3xv8[8:1]/E5hf[8:1]/B5hf[4:1]/E6hf[8:3],6x<1[8:1]/E5hf[8:1]/B4hf[4:1]/E4hf[8:3],6x-1[8:1]/E3hf[8:1]/B2hf[16:5]/E2hf[2:1],{4},
{8},,6x<1[8:1],5,4,3,2h[8:1],{16}8,8,{8}B3f/E3/E4/A3/D3/D4,B7f/E7/E8/A7/D7/D8,B1f/E1/E2/A1/D1/D2,B5f/E5/E6/A5/D5/D6,B7/B3/Cf/B8/B6/B2/B4,,B7hf[8:1]/B3hf[16:5]/Chf[2:1],,
{2},{8}6/4,7,2/8,3,6h[8:1]/5,5,3h[8:1]/4,4,{16}7,7,5,5,4,4,2,2,
{16}7,8,6,4-8[8:1],5,,3,4,,2,2h[8:1],,1,,4/7,,3,4,2,8-4[8:1],1,,7,8,,6,6h[8:1],,5,,8/3,,
{16}2,1,3,5-1[8:1],4,,6,5,,7,7h[8:1],,8,,5/2,,6,5,7,1-5[8:1],8,,2,1,,4x,3x,2x,{24}1x,8x,7x,6x,5x,4x,{256}7xs3[2:3],(18.64){256}3xs7b[48:1],(130.5){64},,,,,,,,,,,,,,,,,,,,,,8bx,,,,,,,8bx,,,,,,,8bx,,,,,,,8bx,,,,,,,,8bx,,,,,,,,8bx,,,,,,,,8bx,,,,,,,,,,,8bx,,,,,,,,,,,,,,,8bx,,,
