&title=二息歩行
&artist=DECO*27
&first=-0.34
&des=UH-1 Iroquois
&lv_5=13
&inote_5=(180){4},,,,,4/6,
{8}3,5,{4}4h[4:1],
6h[4:1],7q4[4:1],{8}5,5,{4}6,
7/5h[4:1],7<4[4:1],{8}8,8,{4}1,
4/2,5,{8}3,5,{4}4,
4/6-1[8:1],6/5,{8}2,1,{4}3,
8/2,{8}1V35[4:1],5,{4}5,C,
4/6,5/4,{8}5,4,{4}6,
2/4h[4:1],5,{8}6,3,{4}5-1[8:1]/4-8[8:1],
5b/4b,{8}2-4[8:1],4,2,5,7-5[8:1],5,
7,4,{4}5/3x-5[8:1],3/7x-5[8:1],7/4x-8[8:1]*p8[8:1],
4,{8}7-4[8:1],5,7,3,2-5[8:1],4,
2,6,{4}7<4[8:1],7/8>3[8:1],8/7,
5/4,{8}2v5[8:1],4,2,6,7>2[8:1],5,
7,4,{4}5-7[8:1],5/4,3-1[8:1],
4/3,{8}8V64[4:1],3,2,1,8V24[4:1],5,
6,7,{4}8<5[8:1]*>3[8:1],8w4[8:1],8b,
{8}6,5,{4}6pp1[2:1],5,4,
{8}3,3h[8:5],{4}B1,B7,B5,
{8},5,{4}5pp1[2:1],4,3,
2h[4:1],1h[4:1],8h[4:1],7h[4:1],
6h[4:1],5h[4:1],{8}4,3,{4}2h[4:1],
{8}1,8,{4}7-1[8:1],7/2-6[8:1],2x/4x,
{8},5,{4}5h[4:1],4,3-7[8:1],
8-4[8:1],1,{8}1,2,{4}3/5h[2:1],
C,4<8[2:1],,8>4[2:1],
,4-8[4:1],,7,
6h[4:1],5,4h[4:1],5,
4,3/5,6,6/4,
5,4/7-4[4:1],,1-4[4:1],
,8q1[8:5],,Ch[1:2],
,8,{8}8,8,,7,
{4}7,{8}6,6,,5,{4}5,
4,3x/5x,{8}4,6,3,5,
{4}3/4h[2:1],{8}3,2,{24}1bx,8,7,6,5,6,7,8,1,2,3,4,
{4}5b/7h[4:1],{8}3,{16}5,4,{8}6,4,5,{16}3,4,
{8}2,6,5/4,3,4/5,6,7/8,1,
{4}6b/2bxh[8:1],{8}5,4,{16}6,5,6,4,{8}5,6/3,
{4}8-4[8:1]/1-5[8:1],8<5[8:1]/1>4[8:1],8bx/1bx,Cf,
{8}7/4h[8:1],6,{16}3,4,3,4,{8}2/5,6,4,{16}6,5,
{8}7,5,6/4,7,5/3,2,8/1,7,
{4}6b/2bh[8:1],{8}7,{16}1,8,{8}1,3/4,4,3/5,
{4}1-5[8:1],1/7-3[8:1],7/4-8[8:1],4w8[8:1],
4,{8}6,5,5,7,{4}7h[8:1],
{8}8,6,6,3,{4}3h[8:1],{16}5,4,5,4,
{4}3/6,{8}3>8[8:1],4,,,{4}C,
{8}6,4,{4}3-7[8:1],{8},,8,1,
{2}2h[4:1],{8}6-2[16:3],6,{4}6h[4:1],
{8},,4pp6[4:1],4,{4}4h[8:1],{8}3,2,
{4}1x-7-5[4:1],5x-3-1[4:1],,5pp1[2:1]*qq1[2:1],
5,,,8qq8[8:3],
2,3,4qq4[8:3],5,
6w2b[8:1],6,{8}4,5,{16}4,5,4,5,
{4}6/3,6pp1[8:7]/3q5[8:7],{8},,,,,,,,B7,
B3,,5,
4,5,{4}4v1[8:1],4/5,6v1[8:1],
{2}6/5h[2:1],{8}E7/B7/A7,E4/A3/D4,,,{4}5-8[8:1]*-2[8:1],
5,{8},1hbx[4:1],7,6,
5,4q8[8:1]/2>5[8:1],,,,7hbx[4:1],6,5,
4,8p4b[8:1]/3>8b[8:1],,,,5,{4}6h[4:1],
3h[4:1],8p4[8:1],8x/3,1q5[8:1],
1x/6,5x/6h[4:3],{8}4,4,4,4,
{4}4hb[4:3],{8}5,5,5,5,{4}5b,
5/4,4/5,{8}4/3,4/3,5/2,5/2,
6/1,6/1,{16}8,7,8,7,{24}1bx,2,3,4,5,6,1bx,2,3,4,5,6,
1bx,2,3,4,5,6,{4}7hx[8:1]/8-3[8:1],{8}8b,7,2,{16}8,1,
{8}8,2,3/4,5,4/3,1,7/8,8/7,
{4}1b/6bh[8:1],{8}3,{16}5,4,{8}6,{16}1,8,{8}2/7,3,
{16}6,4,{8}5,{4}6-1[8:1],6/4q8b[8:1]*-8b[8:1],4b,
1/2>5[8:1],7/2,{16}6,5,7,4,{8}5,3,
5/4,7,5,4,5/3,2,3/1-5[8:1],8x,
{4}1x/7x-3[8:1],7bx/4h[8:1],{16}5,4,5,3,4,3,5,4,
{8}6,5/4,{4}6/3-8[8:1],3/5-1[8:1],5/2,
7/8,5h[4:3]/3-5-1[8:3],{8},,,,2,
3,{4}4/7-5[8:1],7/4-8[8:1],4/1-3[8:1],
1/7,{16}6,5,4,3,{4}1b/2bx>7[4:1],Cf,
,6-4-2[4:1],2-8-6[4:1],6>2[4:1],
2<6[4:1],Cf,{8},,,3/4,
5,3,{4}2-8[8:1],2/7-4[8:1],7/3-8[8:1],
3/6,{8}5/2,4,2/5,3,7/4,6,
5/2,4,{4}5bx/7b-5[4:1],5-3[4:1],3-1[4:1],
{1}1<1[8:5]*>1b[8:5],
E
