&title=爆ぜて咲く
&artist=トゲナシトゲアリ
&first=0
&des=Soxps
&lv_5=13+
&inote_5=(200)
{1},,,
{8},,,,2h[4:1]/1h[4:1],,,4h[4:1]/6h[4:1],,,8h[4:1]/7h[4:1],,,3h[4:1]/5h[4:1],,,
{16}6h[8:1]/4h[8:1],,,5h[8:1]/7h[8:1],,,8b,,,,,,,,,,
{8}3b>8[8:1]/4,,3,,5,6,47,,38,2,17,6,3-5[32:3]/5,,,,
{8}7<4[8:1],,7,,1,2,38,,47,6,15,2,38,7,{16}4,6,4,6,
{8}3>8[8:1],,3,,5,6,74,3,2b/6b,2b/6b,{16}3,4,3,4,2,,1,,8,,7,,
{8}6<3[4:6]/3h[4:1],,,,3h[4:1],,,,4h[4:1],,,,4h[4:1],,,,
{8}5qq2[8:13]/6h[4:1],,,,6h[4:1],,,,7h[4:1],,,,8<5[8:1],,,,
{8}1h[4:1],,4,,2h[4:1]/5,,5,6,7h[4:1]/4,,3,,2h[4:1],,5,6,
{8}7h[4:1]/4,,3,,2h[4:1],,8q7[4:2],1,2h[4:1],,,,4,,,3,
{8}3-1[8:1],,5,5-7[8:1],,4,4-2[8:1],,
{8}6,6-8[8:1],,5,5,,4,3,2>5[4:1],,,8,8<5[4:1],,,1,1-5[8:1],,,,7,6,4,3,
{8}2b/5,5,6,7h[4:1],,2-4[8:1],8,2,7-5[8:1],1,7-3[8:1],,7/8,,1,2,
{8}3h[4:1]/7,7,6,6,54,3,3,2,1,7h[4:1],,2,8p4[8:1],,38,2,
{8}1,1-5[8:1],,6,7,7-3[8:1],,2,2h[4:1],,5,5q1[8:1],,2,3,3,
{8}48,7,64,3,25,6,37,2-5[8:1],8-4[8:1],2<4[8:4],8,2,,,,7,
{8}7b-3[4:3],,,,,,,1,1-5[4:3],,,,,,,8,8qq4[8:10],,,,4,,,,4,,3,,2,,1,,
{8}1b/6b,7,7,38,2,2,16,5,3-8[8:1],4-7[8:1],3,4,,1,2,3,47,6,6,25,3,3,48,37,
{32}6h[8:1]/2h[8:1],,,,,,5h[8:1]/1h[8:1],,,,,,4/8,,,,5h[8:1]/1h[8:1],,,,,,6h[16:1]/2h[16:1],,,,,7b/3b,,,,,
{8},,,,,4,3,2,
{16}1b-5[8:1]/7,,,8,1,,7,,6h[4:1],,,,4,,3,,
{16}2-4[32:3],,1,,8h[4:1]/2,,,,2-5[8:1],,1,,8h[4:1]/2,,,,
{16}2-6[8:1],,1,,2/8,,,,8,,7-4[8:1]/5,,,,37,,
{16}2-5[8:1],,2,,8-4[8:1],,8,,1bV35[4:1],,,,6,,7,,
{16}8V64[4:1],,,,4,,4,,3,,2,,1>5[4:1],,,,
{16}5<1[4:1],,,,1,,,,5h[4:1],,,,4-2[8:1],,,,
{16}4-6[8:1],,,,4-1[8:1],,,,4-7[8:1],,,,4w8[8:1],,,,
{16}4b,,,,,,,,,,2,,3,,4,,
{16}5/7b-3[8:1],,,8,7,,1,,2h[4:1],,,,5,,6,,
{16}7-5[8:1],,8,,7/1h[4:1],,,,7<4[8:1],,8,,1h[4:1]/7,,,,
{16}7p3[8:1],,8,,1/7,,,,1,,2-5[8:1]/4,,5,,26,,
{16}7-4[8:1],,7,,1-5[8:1],,1,,8bqq8[8:3],,,,3,,2,,
{16}1pp1[8:3],,,,5,,5,,6,,7,,8<4[4:1],,,,4>8[4:1],,,,8,,,,4h[4:1],,,,5-7[8:1],,,,
{16}5-3[8:1],,,,5-8[8:1],,,,5-2[8:1],,,,5w1[6:1],,,,
{16}5b,,,,,,,,3h[8:3],,,,,,5,,
{8}6h[4:2],,,5,4h[4:2],,,5,
{8}6h[4:1],,4,3,8h[8:3],,,2,
{8}3h[4:2],,,6,5h[4:2],,,2,
{8}3h[4:1],5,6h[4:1],4,3,3,6,6,
{8}4b-1[8:1],,74,6,5-1[8:1],,25,3,
{8}4,4,8,8,3v8[8:1]/7v4[8:1],,37,,
{16}1b/5b,,2,6,2,6,2,6,3,5,3,5,4-8[4:3],4,4,4,
{4}4h[4:3],,,,
{8}27,3,45,6,35,2,17,6,52,3,47,6,35,2,17,6,
{16}25,,3,3,4,,2,,17,,6,,25,,3,,46,,7,,35,,2,,1-5[8:1]/8-4[8:1],,27,,1b/8b,,,,
{16}37,,6,6,5,,7,,28,,3,,47,,8,,12,,3,,45,,6,,17,,2,,35,,6,,
{12}2,4,3,7,5,6,1,4,3,8,5,6,3,3,3,5,5,5,{24}7,,7,,7,,1,,1,,1,,
{8}2b-5[8:1],2,7-4[8:1],7,1-5[8:1],1,8-4[8:1],8,2-6[8:1],2,7-3[8:1],7,1-5[8:1],1,8,7,
{8}26,3,47,8,12,34,56,78,
{16}1,6,1,6,1,6,1,6,1,6,1,6,1,6,1,6,
{16}2,7,3,8,3,8,3,8,3,8,3,8,3-7[8:1],8,3,8,
{1}3bpp7[4:10]*pp6[4:10],,,
{8}4h[4:1],,,,7h[4:1],,,,
{16}2b/5b,,3,4,2,,6,5,7,,3,4,2,,7,5,6,,2,4,3,,8,5,6h[4:1],,4,,3,,2,,
{16}1b,5,1,5,1,5,1,5,2,6,2,6,2,6,2,6,
{16}3b-8[8:1],,,,3/5,,6-1[8:1],,,,6/4,,3,,,,
{32}3h[8:1]/7h[8:1],,,,,,4h[8:1]/8h[8:1],,,,,,5/1,,,,4h[8:1]/8h[8:1],,,,,,3h[16:1]/7h[16:1],,,,,2b/6b,,,,,
{16},,,,,,,,,,4,,3,,2,,
{16}1b-5[8:1]/8,,,7,1,,7,,8h[4:1],,,,4,,3,,
{16}2-4[32:3],,1,,8h[4:1]/2,,,,1-4[8:1],,8,,1/7h[4:1],,,,
{16}8-4[8:1],,7,,8/6,,,,6,,5-8[8:1]/3,,,,52,,
{16}1-4[8:1],,1,,7-3[8:1],,7,,8b,,,,8,,1,,
{16}2-5[8:1],,,,2,,1,,8,,7,,6/1V35[4:1],,,,
{8}5V71[4:1],,1,,5h[4:1],,4-1[8:1],,4-7[8:1]/6,,4>1[8:1]/2,,4<7[8:1]/6,,4w8[8:1]/2,,
{8}4b,,62,3,74,6,54,3,
{16}7b-3[8:1]/8,,,1,7,,1,,2h[4:1],,,,5,,6,,
{16}7-5[8:1],,8,,1h[4:1]/7,,,,8<5[8:1],,1,,8/2h[4:1],,,,
{16}1p5[8:1],,2,,31,,,,3,,2q6[8:1]/4,,5,,62,,
{16}7-4[8:1],,7,,3-7[8:1],,3,,8bV26[4:1],,,,5,,4,,
{16}3V15[4:1],,,,5,,5,,6,,7,,8V64[4:1]/3,,,,
{16}4V28[4:1],,,,8,,,,4h[4:1],,,,5-8[8:1],,,,
{8}3/5-2[8:1],,5<8[8:1]/7,,5>2[8:1]/3,,5w1[8:1]/7,,
{8}5b,,7v4[8:1]/3v8[8:1],,73,,51,62,
{8}7-4[8:1]/3,,73,2,1-4[8:1],,51,6,
{8}7qq7[4:1],,7>5[8:3],,1h[4:1],,,2,
{8}3-8[8:1],,73,6,5-8[8:1],,51,2,
{8}3-6[8:1],3,7-4[8:1],7,2,,1,1,
{8}7b-4[8:1],7,2-5[8:1],2,8-4[8:1],8,1-5[8:1],1,
{8}7-3[8:1],,7,8,1b,,{16}2/6,,2/6,,
{16}3,7,3,7,3,7,3,7,4,8,4,8,4qq5[8:5],8qq1[16:9],4,8,
{1}4b,
{8}6bV84[4:1]/2b,,64,3,2v5[8:1],,2,,
{8}7-4[32:4],,78,,7v4[8:1],8,17,2,
{8}3V15[4:1],,35,6,7v4[8:1],,7,,35,2,18,7,65,4,{16}3,5,2,4,
{8}1bV37[4:1],,17,6,5<8[8:1],,25,3,4V26[4:1],,46,7,8<5[8:1],,38,2,1>4[8:1],1,8,7,6<1[8:1],6,5,4,3,3,26,26,{16}1,5,1,5,8-4[8:1],4,8,4,
{1}8b,{16},,,,,,1,7,3,,1/5,,,,8,2,6,,4/8,,,,1,7,3,,1/5,,,,8,2,6b-1[16:1],,,3b-6[16:1],,,8b>7[16:15],
,,,,,,,,,{4},3h[16:5],,E
