&title=Bad Encryption
&artist=ZAQUVA
&first=0.1
&des=Cart
&lv_5=14
&inote_5=(200){8},,,,,,3,
{16},7h[4:5],,,,,,,,,,,,,,,,,,,,,,,,,,,3,,,,,6h[2:3],,,,,,,,,,,,,,,,,,,,,,,,,,,,,,,,,
{16}3/5h[1:1],,,,,,,,,,3,,,,,,,,
{16}3,5,3,5,3,5,3,5,3,5,3,5,3,5,3,5,3,5,3h[2:1],,,,,,,,,,,,
{16}7,,,,8,,{24}1,2,3,4,5,6,7,8,1,2,3,4,5,6,7,
{32}8,1,2,3,4/5,6,7,8,
{8}2b-5[8:1],,2/8-4[8:1],8,8/3,3,
{16}6,3,4,2,7,5,6,4,5,2,7,1,8,2,6,3,5,4,,,
{16}7b-3[8:1],,7b,,7/1b-5[8:1],,,,1b,,,,6h[16:3],,,3,8-5[8:1],,1,,8,,,,3,4,3,4,3,,2,,
{8}7b-4[8:1],,7/1-5[8:1],1,1/6,6,
{16}3,4,2,6,5,7,3,5,4,6,4,5,3,7,2,8,1,7,,,
{16}1b-4[8:1],,1b,,1/5b-8[8:1],,,,5,,,,2,6,4,8,2b,,,,7,,7,,3,,3,,6h[8:3],,,,,,1,,
{8}1-6[8:1]/7,8,1-4[8:1]/3,2,1,
{16},,6,5,6,5,7,4,7,4,8,3,8,3,1,2,1,2,
{16}8b-4[8:1],,8b,,2b-6[8:1],,,,2b,,,,7,4,6,5,7,,3,4,2,,6,,3,5,3,5,3,,7,,
{8}1b,,8-3[8:1]/2,1,8-5[8:1]/6,7,8,
{16},,3,4,3,4,2,5,2,5,1,6,1,6,8,7,8,7,
{16}1b,,,2b/6b,,,3b/5b,,4b,,6,,3b,7b,1b,,
{32}8,7,6,5,4,3,2,1,
{16}8,7,6,5,,4,,3,,,,,
{16}2>5[8:1],,1,,8,,,,7b,,3,,2,,1,8,1,,8,,8,,,,7b,,6/3,,5,,4,,3,8,3,,2,,,,7b,,3,5,3,,2,,6,4,6,,3,,5,,7b,,
{16}1,6,1,,5,,3-1[8:1],4,3,4,,,,,7b,,1<6[8:1],,2,,3,,4,3,2,,6,,,3,7b,,4/5,,6,2,5,,3>8[8:1],,4,,5,,6,,7b,,
{16}1,8,1,8,1,8,1,8,1,8,2,6,7,4,3h[4:1],,,,,,,,
{16}7-4[8:1],,,,7,,3,,5,,3,4,3,4,3,,2/6,,1/5,,7h[4:1],,3h[8:1],,,,6,2,5,3,4,4,4h[4:1],,,,7,,7,,1,8,1,8,3-8[8:1],,5/2,,3,,,,7-3[8:1],,7h[8:1],,,,8,,8h[8:1],,,,
{16}6,2,6,2,6,,3,,2,,6,6,2,,5,5,3,,7,,2,,8,,1,1,1,1,1,1,1,1,
{16}2-5[8:1],,8,8,2,,7-4[8:1],,,,7>2[8:1],,3,3,7,,4-8[8:1],,,5-1[8:1],,,6-2[8:1],,,7,,,3,,,,
{16}8,,1-4[8:1],7,7-4[8:1],,1-5[8:1],,7-3[8:1],,1,,7,,,,
{8}1,2,3,
{16}8,,3,,7<4[8:1],,8,2,7,,
{16},,2,,3,,4,,7-3[8:1],,7,,8-4[8:1],,8,,1-5[8:1],,1,,2-6[8:1],,2,,8,,7,1,7,,7,,
{16}3/5,,3,,6/4,,6,,2/8,,1,1,1,,4,,6,,5,,
{16}2/4,,3,,5/7,,6,,3/5,,4,,4/6,,5,,
{16}4/6,,4/6,,5,5,5,,3,,3,,2,,2,,7,,7,,1,8,1,8,1,8,1,,
{4}7h[1:1],,,,
{16}1,,,2,,,3,,
{16}4,,,,5,3,5,3,5,,2,6,2,,7,1,7,1,7,1,7,1,7,1,8b,8,8b,8,8b,8b,8b,8b,8,8b,8b,8b,8h[8:1],,,,
{8}2b-5[8:1],,2/7b-4[8:1],6b-3[8:1],7b,6b,
{16}5h[4:1],,,,4,,4,,6,5,7,,1-4[8:1],,8-5[8:1],,1,,8,,
{8}2b-6[8:1],,2/7b-3[8:1],8b-4[8:1],7b-5[8:1],8b,7b,,
{16}3,,3,5,3,,3,6,3,,3,7,3,,3,8,
{8}2b-6[8:1],,2/8b-4[8:1],1b-5[8:1],8b-3[8:1],1b,8b,,
{16}1,1,1,,7,7,7,,3,5,3,5,4,4,4,,
{8}5b-8[8:1],,5/4b-1[8:1],3b-6[8:1],4b,3b,2h[4:1],,
{16}7,,7,1,7,,2/8,,3,5,4,6,5h[4:1],,,,
{8}3b,,1b/2,1b,1/8b,8b,7b/8,7,6,5,4,3,2,1,
{16}8,7,6,5,4,3,2,1,
{24}8,7,6,5,4,3,2,1,8,7,6,5,
{32}4,3,2,1,8,7,6,5,
{16}4b,,2b-5[8:1],8,8,,2,,7-3[8:1],,7,,7b,,,,
{8}1b/8b,,4b/7-2[8:1],6,7b/4-1[8:1],3,6b/4b,,
{16}7,8,6,1,7,8,6,1,7,1,6,8,7,1,,,
{8}7b,,6b-3[8:1]/4,5,8b-5[8:1]/6,1,8b/2b,,
{16}3,4,2,5,3,4,2,5,3,4,2,5,2,4,,,
{8}1b,,8-5[8:1]/6b,1,8b/2-7[8:1],3,2b/4b,,
{16}6,5,4,3,2,7,1,8,2,7,3,6,4,5,,,
{32}1b,2,3,,,,5b,6,7,,,,4b/8b,3/7,2/6,,,,1b/5b,2b/6b,3b/7b,,,,
{16}1,2,5,6,2,3,6,7,3,4,7,8,
{32}1,2,3,4,5,6,7,8,
{8}1h[8:1],,
{8}7,6/5,4,3/2,1,8,7,1,5-8[8:1],,,3-8[8:1],,,7,6,5h[4:1]/4h[4:1],,,2h[4:1]/7h[4:1],,,3h[2:1],,6h[4:1],,,,
{16}2/5,,3,4,3,,7,,4/7,,6,5,6,,2/5,,3,4,3,,1/6,,,,2/8,,1,1,1,,1/7,,8,8,8,,3b/6b,,,,
{16}1b/5b,,,3b/7b,,,2b/6b,,,4b/8b,,,1b/5b,,2b/6b,3b/7b,,,
{32}4b,3,2,,,,8b,7,6,,,,1b,2b,3b,,,,5b,6b,7b,,,,1b,,2/8b,3/7b,4b/6,5b,,,,,,,
{8},,,,,,7,,,,,,3,5,3,,,3,,,4,,7,,,5,,,,,1,,,2,,,2,,7,,,8,,,8,,1b,,,,,,,,7,,,,,,,,,,,,,,1,,
{16}2,5,3,7,4,
{32}8,1,2,3,,,,,8,7,6,5,,,,,,,
{16}7,3,7,,4,6,4,,5,,
{32}4,3,2,1,8,7,6,5,8,7,6,5,,,,,
{16}7b,3b,6b,2b,5b,,1b,,5b,,,1b,,,1b,,
{32}1b,2/8,3/7,4/6,5,,,,E
