&title=PRAGMATISM
&artist=Laur
&first=0.5
&des=布衣
&des_5=布衣
&lv_5=14
&inote_5=(174){8}5/3,4,,7h[8:3],,2,{4}1,
{8}6/4,5,,2h[8:3],,6,7,8,
1/3,4,,5h[8:3],,8,{4}1,
{8}6/8,,,4h[8:3],,1,{4}8,
{2}5/7h[4:3],{8}1,2,{4}3,
{8}4/2h[4:3],,,7,{4}6,4,
{8}2/8h[4:3],,,7,,5,{4}4,
{8}7/1h[4:3],,,4,{4}5,8w4[8:1],
{2}8b,{8}7,8,{4}1w5[8:1],
{8}1b,,,3,{4}2,7w3[8:1],
{8}7b,,,6,,1,{4}2w6[8:1],
{8}2b,,,4,,7,{4}6w2[8:1],
{2}6,{8}1,2,{4}3w7[8:1],
{8}3,,,8,{4}7,5w1[8:1],
{8}5,,,1,,3,{4}4w8[8:1],
{1}4,
{32}B7,B6,B5,B4,,,,,{8}2,3,{16},3,5,4,{8}6,7/2,
5b/4b,3,5/4,6,4/3,2,6/5,7,
4/2,1,5/7,8,3,2,8/1,2/7,
4/5,6,4/5,3,5/6,7,3/4,2,
5/7,8,4/2,1,6,7,8/1,7/2,
2-5[8:1],2,8-4[8:1],8,1-5[8:1],1,7-4[8:1],7,
{16}3,2,1,8,7,6,5,4,3,7,3,7,2-6[8:1],6,2,6,
2bpp7[2:1]*qq5[2:1],Cf,,,,,,,,,,,,,,,5/7h[16:3],
,,3h[16:3],,,{8}5h[16:3],{16},1,{8}7,{4}8<5[8:1],
8b>3[8:1],8/4V62[4:1],{8}4,2,{4}4-8[8:1],
4/6-2[8:1],6/7V51[8:3],{8}1,2,{4}3-6[8:1],
3-8[8:1],3/7V53[4:1],{8}2,1,{4}8<5[8:1],
8/3>8[8:1],3<6[8:1],{8}3,2,{4}1-6[8:1],
1/4-8[8:1],{8}5-1[8:1],6,2-7[8:1],3,{4}6V82[4:1],
5,4-7[8:1],{8}8/4,1,{4}2-6[8:1],
2/1<6[8:1],{8}1/5-8[8:1],4,3,2,{4}1-4[8:1],
6<1[8:1],6/5-2[8:1],{8}5/8,7,{4}1>4[8:1],
1<6[8:1],{8}1/5V37[4:1],4,5,7,{4}5-1[8:1],
5/3-7[8:1],3/2V48[8:3],{8}8,7,{4}6-3[8:1],
6-1[8:1],6/2V46[4:1],{8}7,8,{4}1>4[8:1],
1/6<1[8:1],6>3[8:1],{8}6,7,{4}8-3[8:1],
8/5-1[8:1],{8}4-8[8:1],3,7-2[8:1],6,{4}3V17[4:1],
4,5-2[8:1],{8}1/5,8,{4}7-3[8:1],
7/8>3[8:1],{8}8/4-1[8:1],5,6,7,{4}8-5[8:1],
8/2,{8}4,7/1,{16},,1,1,{4}8/2-6[8:1],
{1}2b>8[4:7],
{4},,,8>6[1:2],
{8}B7,,,B6,,,B3,C,
B7,,,B2,{16},,,,6<4[1:2],B5,B4,B3,
{1}B2,
{8}B7,,,B6,,,{4}4<2[1:2],
{1}C,
{8}B8,,,B4,,,,,{4}4b,
7/1,{8}5,8/2,{16}3,5,4,6,
{4}5,{8}2/8,4,4,1/7,{16}6,4,5,3,
{4}4,7/1,{8}5,8/2,{16}3,6,4,5,
{4}3,2/8,{8}4,1/7,{16}6,3,5,4,
{4}6,3/1,{8}4,6/8,{16}4,5,3,6,
{4}3,6/8,{8}5,3/1,{16}5,4,6,3,
{4}6,3/1,{8}4,6/8,{16}4,5,3,6,
2h[4:1],,,1,{8}1,7h[16:3],{16},5x,4x,3x,2x/6x>3[16:3],1x,8x,7x,
{4}6bx,{16}1x/2x,8,7,6,5/4,3,2,1,{4}7/8h[16:7],
{16}1,2,3,4,1/5,2,3,4,{4}5/6,1/8,
{16}4b/3b,5,6,7,8/1,2,3,4,5/6,7,8,1,5,4,3,2,
1/8,7,6,5,4/3,2,1,8,{4}7<3[4:1],1,
8-4[8:1],{8}8/4,2V48[4:1],,2/4,{4}6,
{16}1/7,6,5,4,7,6,5,4,{4}3-7[8:1],2x/3x,
{16}8b/3b,4,5,6,7,8,6/1,5,4,3,2,1,3/8,4,5,6,
7,8,6/1,5,4,3,2,1,{4}8<4[4:1],2,
1-5[8:1],{8}1/5,7-3[8:1],,3/7,{4}1>4[16:3],
{16}1/5,6,7,8,1,2,3,4,5x/1x,2,3,4,5/6,7,8/1,2,
{4}3V17[4:1],{8}3/7,5V37[4:1],,1/5,{4}2,
{16}8x,7,6,5,8x/4x,1,2,3,8x/4x,7,6,5,4x/8x<1[16:7],1,2,3,
{2}8b/4h[4:1],{16}8/4,7/3,6/2,5/1,4/8,3,2,1,
{4}8>3[4:1],3<6[4:1],6<1[4:1],3,
{16}5,4,3,2,8,7,6,5,3,2,1,8,{8}6<1[16:3],5x,
{16}6/2,3,4,5,2,3,4,5,6,7,8,1,5,6,7,8,
{1}7bxz3[2:1]/1bxs5[2:1],
{16}4/2h[16:3],,,6h[16:3],,,{8}4h[16:3],{16},8,{8}2,{4}1w5[8:1],
{16}1bp6[4:3]*q4[4:3],Cf,,,,,,,,,,,,,,,,,3,
2,{8}1,{16}7,6,{8}5,{16}2,1,{8}8-4[8:1],{16}6,5,
{2}8b/4,{16}5,4,7,2,6,3,8,1,
5,4,7,2,6,3,8,1,5,4,7,2,8w4[8:1],1,6,3,
8bqq5[4:3]*pp3[4:3],Cf,,,,,,,,,,,,,,,,,6,
7,{8}8,{16}2,3,{8}4,{16}7,8,{8}1-5[8:1],{16}3,4,
{2}1b/5,{16}4,5,2,7,3,6,1,8,
4,5,2,7,3,6,1,8,4h[32:1],5h[32:1],2h[32:1],7h[32:1],{8}3h[8:1],6h[8:1],
{2}1w5[0.6897##0.1724],{16}1>1[4:9]*<1[4:9],Cf,
E
