&title=Death by Glamour
&artist=Toby Fox
&first=1.6
&des=SiroGin
&clock_count=4
&lv_5=14
&inote_5=(148)
{16}4h,,,,7h,,,,1h,,,6h,,,3h,,
{16},,3h,,7h,,,,1h,,,6h,,,,,
{16}1h,,,,6h,,,,4h,,,7h,,,2h,,
{16},,2h,,6h,,,,4h,,,7h,,,,,
{16}4h/6,,,5,7h,,3,,1h,,2,6h,2,,3h,,
{16},,3h,,7h,,4,,1h/5,,8,6h,,,2,,
{16}1h/7,,,8,6h,,2,,4h,,3,7h,3,,2h,,
{16},,2h,,6h,,1,,4h/8,,5,7h,,,3,,
{16}1<3[4:4]/2h,,,,2h,,,,2h,,,2h,,,2h,,
{16},,2h,,2h,,,,2h/B3,,,2h,C,,2h,,
{16}1<3[4:4]/2h,,,,2h,,,,2h,,,2h,,,2h,,
{16},,2h,,2h,,,,2h/B3,,,2h,C,,2h,,
{16}1/2,,8,,7/C,,5,6,4,5,3,,2/C,,1,,
{16}1/8,,2,,3/C,,5,4,6,5,7,6,8x,7,6,5,
{16}4/3,,2,,1/C,,7,5,6,4,5,,3/C,,2,,
{16}1/8,,7,,6/C,,2,4,3,5,4,6,
{32}1,2,3,,8,,8,,
{8}7x/5x,6,2/4,3,4-1[8:1]/8-5[8:1],5-8[8:1]/1-4[8:1],,,
{8},2,5/7,6,3-8[8:1]/4-7[8:1],7/8,,,
{8}1/2,3,7/8,6,5-8[8:1]/1-4[8:1],8-5[8:1]/4-1[8:1],,,
{8},7,3/4,2,7-4[8:1]/8-3[8:1],3/4,,,
{8}5/6,7,1/2,3,5>2[8:1]/6p1[8:1],1q6[8:1]/2>5[8:1],,,
{8},7/8,3/4,2,5-2[8:1]/6-1[8:1],1/2,,,
{8}4/3,2,8/7,6,4<7[8:1]/3q8[8:1],8p3[8:1]/7<4[8:1],,,
{8},2/1,6/5,7,1-4[8:1]/8-5[8:1],2/7,1b/8b,,
{16}7/8,,3/4,,2,2h[8:1],,1,3,8,4,7,5,,6/4,,
{16}1/2,,5/6,,7,7h[8:1],,8,6,1,5,2,4,,3/5,,
{16}1,7,2,6,4h[8:5],,,,
{32}1b,2,3,,,,,,7b,6,5,,,B4,C,B8,
{16}8xh[4:1],,,3,3V57[8:1],,7v4[8:1],,8,,1,,2h[8:1],,,,
{16}7/8,,3/4,,2,2h[8:1],,1,3,8,4,7,5,,6/4,,
{16}8/7,,4/3,,2,2h[8:1],,1,3,8,4,7,5,,6/4,,
{16}8,2,7,3,5h[8:5],,,,
{32}8b,7,6,,,,,,2b,3,4,,,B5,C,B1,
{16}1xh[4:1],,,6,6>2[8:1],,2v5[8:1],,1,,8,,7h[8:1],,,,
{16}2/8,,4/6,,1,1h[8:1],,8,2,7,3v8[8:1],6,4,5,3,,
{16}7,,3/5,,8,8h[8:1],,1,7,2,6v1[8:1],3,5,4,6,,
{16}2,8,3,7,4h[8:5],,,,
{32}1b,2,3,,,,,,7b,6,5,,
{24},3x,2x,
{16}1xh[4:1],,,7,7v2[8:1],,2<6[8:1],,3,,4,,4h[8:1],,,,
{16}7/1,,5/3,,8,8h[8:1],,1,7,2,6v1[8:1],3,5,4,6,,
{16}2,,6/4,,1,1h[8:1],,8,2,7,3v8[8:1],6,4,5,3,,
{16}7v4[8:1],1,6,1,7b,,,,2v5[8:1],8,3,8,2b,,,,
{32}7,,1,,6,,2,,8,7,6,,3,,3,,5b<1[4:1],,,,,,,,1,,2,,3,,4,,
{16}5V31[4:1],,,,1,8,7,6,5pp4[4:1],,,,3,,2,,
{4}1-3[8:1],1/5-7[8:1],5/8w4[8:1],8,
{8}2bv5[8:1]/6b,,2/1,8,7b<4[8:1],,3/7,2,
{16}1,3,1,,7,5,7,,2b/6b<2[4:1],,,,2,3,4,5,
{16}6V41[4:1],,,,1,8,7,6,5p4[4:1],,,,3,,2,,
{4}1-7[8:1],1/5-3[8:1],5/2w6[8:1],2,
{8}4b/8bqq1[4:1],,2,3,4bv1V35[4:1],,8,7,
{16}6b,,1,3,1,,7,5,7,,2,2,7v4[8:1],1,5,3,
{16}7b,,,,2v5[8:1],8,4,6,2,,,,7,,6/8,,
{4}1-3[8:1]/5-7[8:1],1x-6[8:1]/5x-2[8:1],1x-5[8:1]/5x-1[8:1],1x/5x,
{24}8b/4b>1[8:1],,,,,,7,6,5,4,,,1b/5b<8[8:1],,,,,,2,3,4,5,,,
{16}7,5,7,,2,4,2,,3b/6b,,,,1-5[8:1],5,3,7,
{16}1b,,,,8-4[8:1],4,6,2,8,,,,3/7,,2/6,,
{4}1q5[8:1]/5q1[8:1],1x<6[8:1]/5x>2[8:1],1xq5[8:1]/5xq1[8:1],1x/5x,
{8}7bv4V61[4:1]/4b,,4,3,2-5[8:1],,2/7s3[8:1],,
{4}1bh[16:11],,,C,
{16}7-4[8:1]/8,,,,7/1,,2,2,3<6[8:1],,,,3/2,,1,,
{16}7/8-3[8:1],,7,,6/8,,5,5,4>1[8:1],,,,4/5,,6,,
{16}7v4[8:1],,4V68[8:1],4,,,3,,2h[4:1],,,,8,,1/7,,
{16}2v5V31[4:1]/6,,5,5,,,6,,7h[4:1],,,,1,,2/8,,
{16}3/7-4[8:1],,2,,1/7,,2,2,3<6[8:1],,,,3/2,,1,,
{16}7/8-3[8:1],,7,,6/8,,5,5,4>1[8:1],,,,4/5,,6,,
{16}7qq8[4:1],,4,4,,,3,,2h[4:1],,,,8,,1/7,,
{16}6/2pp1[4:1],,5,5,,,6,,7<4[8:1],,,,7/8,,1,,
{16}2-5[8:1],,3,,2/8,,7,7,6>3[8:1],,7,,6/8,,1,,
{16}2/8-4[8:1],,7,,8/1,,2,2,3<6[8:1],,2,,1/3,,8,,
{16}7qq5[8:1],,5<8[8:1],5,7,,4,,3h[8:1],,,,8,,1/7,,
{16}2pp4>1[4:1]/6,,4,4,2,,5,,6h[8:1],,,,1,,2/8,,
{16}7-4[8:1]/3,,6,,7/1,,2,2,3<6[8:1],,2,,3/1,,8,,
{16}7/1-5[8:1],,2,,1/8,,7,7,6>3[8:1],,7,,8/6,,1,,
{16}2pp8[4:1],,4,4,2,,5,,6h[4:1],,,,1pp8[4:3],,5pp4b[8:5],,
{1},
{16}3b/6b,,2,4,2,,7s3[4:1],5,7,,8,8,,1,1,,
{16}2,,6,8,6,,3s7[4:1],1,3,,4,4,,5,5,,
{16}6,,2,4,2,,7z3[4:1],5,7,,8,8,,1,1,,
{16}2,,E8,E2,E7,E3,E6,E4,
{12}B7,B2,B6,
{8}B3,C,
{16}2/4,,5/7,,1,8,2,7,
{24}3x,4,5,6,7,8,
{32}1x,2,3,4,5,6,7,8,
{16}2,1,3,8,4,7,5,6,
{12}3,4,2,
{8}5,1h[8:1],
{16}8,8,6,6,7,7,5,5,6,6,4,4,5,5,3,3,
{16}4,3,4,2,4,1,4,8,5,1,6,2,7,3,8,4,
{16}1x,2,3,4,5,6,7,8,4,8,3,7,2,6,1,5,
{16}2,4,,7,5,,6-8[8:1],,8v1[8:1],,1-3[8:1],,3,,,,
