&title=リュウ.ハヤブサ 鮮烈のリュウ -DW SW MIX-
&artist=小池雅人
&first=0
&des=NekoMuseigen
&lv_5=13+
&inote_5=(150)
{1},
{8},,,,,,,,
3b/4h[8:6],,1,,,,2h[8:3],,4,4,3h[8:3],,5,5,4,,
6b/5h[8:6],,8,,,,7h[8:3],,5,5,6h[8:3],,4,4,5-3[8:1],,
4b-6[8:1],,3-7[8:1],,5-2[8:1],,6-1[8:1],,
4b-1[8:1],,3-8[8:1],,5-8[8:1],,6-1[8:1],,
2b-6[8:1],2,5-2[8:1],5,1b-5[8:1],1,6,6,
{16}3b,4,2,5,4,7,5,6,
4,5,2,7,3,6,1,8,
27,,1,,46,,2,,5<8[8:1],3,,3,5,,4,,6/5,,45,,34,,2h[8:1]/5,,4h[8:1],,5h[8:1],,7,,,,
72,,8,,53,,7,,4>1[8:1],6,,6,4,,5,,3/4,,54,,56,,7h[8:1]/4,,5h[8:1],,4h[8:1],,2,,,,
2/5b,,1,,36,,2,,7>2[8:1],3,,3,7,,4,,6/5b,,54,,34,,2h[8:1]/5,,4h[8:1],,6h[8:1],,8,,,,
8b,4,6,4,6,4,6,4,8b,2,4,2,4,2,4,2,8b,4,6,4,8b,2,4,2,
5b,3,7,1,6b,4,8,2,
{8}7,82,6,82,5,8v5[8:1]/2v5[8:1],4,82,,8b/7,8bz4[16:5]/6,8b/5,8b/4,,,,
7V51[8:2]/5b,4,3,2h[8:5],,8,7,6,5V37[8:2],3,2,1h[8:5],,6,5,4,3pp6[16:8],2,1,8,,
1,2,3,54,56,47,{16}6,5,,3,4,,2-5[8:1]/5,,,,
{8}1b,8,75,6h[8:3],,1,2-6[8:1],3,1b,8,75,4/6h[8:3],,
1,2-7[8:1],3,8b,6,5-8[8:1],2,1b,3,4h[8:2],7,
{16}8b,4,5,4,2b,4,5,4,7b,3,4,3,8b,3,6,1,
8h[8:1],,4,7h[8:1],,5,6h[8:1],,4,5h[8:1],,3,4,2,7,5,
6,,4,6h[8:1],,5,7h[8:1],,6,8h[8:1],,5,7,2,4,3,
6,,1,7h[8:1],,2,6h[8:1],,3,5h[8:1],,4,6,2,8,4,
6,5,7,5,8,3,1,2,7,3,6,4,73,,6/2,,
5/1b,,7,3h[8:1],,8,4h[8:1],,7,5h[8:1],,6,5,8,3,6,
5b,,7,3h[8:1],,6,2h[8:1],,5,1h[8:1],,4,3,6,1,4,
3b,,7,2h[8:1],,8,3h[8:1],,1b,4h[8:1],,6,4,8,2,6,
1b,4,3,4,1b,6,8,7,2b,6,3,5,2b/6,,3/7b,,
{8}4,17,3,17,2,1v4[8:1]/7v4[8:1],8,17,,1b/2,1bs5[16:5]/3,1b/4,1b/5,,,,
2-5[8:1]/4b,5-1[8:1],6,7h[8:5],,8,1,2,3-5[8:1],5-1[8:1],7,8h[8:5],,2,3,4,5V31[16:3],6V48[16:4],5,6,,
1,2,3,46,53,24,{16}7,5,,2,4,,7-4[8:1]/4,,,,
{8}8b,1,24,3h[8:3],,8,7-3[8:1],6,8b,1,24,5/3h[8:3],,
8,7-2[8:1],6,1b,3,4-1[8:1],7,8b,6,5h[8:2],2,
{16}1b,5,4,5,7b,5,4,5,2b,6,5,6,1b,6,3,8,
{8}1-5[8:5],,4,,,,4,,2-6[8:5],,4,,,,4,,3-7[8:5],,4,,,,4,,
4-8[8:5],,4,,,,4,,
{16}
4b,5,4,5,4,5,4,5,4,5,4,6,3,7,2,8,
4,5,4,5,4,5,4,5,4,5,4,6,3,7,2,8,
3,6,3,6,3,6,3,6,3,6,3,7,2,8,1,7,
{32}2,3,4,5,6,7,8,1,
82,3,4,5,6,7,8,1,
62,3,4,5,6,7,8,1,
42,3,4,5,6,7,8,1,
{16}2b/6b,,7,8,,5,4,,1,2h[8:1],,4,3,5,4,6,
73,,6,5,,8,1,,4,3h[8:1],,6,4,5,3,4,
25,,7,8,,5,4,,1,2h[8:1],,6,3,8,4,8,
5,6,5,7,1,8,2,8,3,4,2,4,15,,26,,
7b/3b,,2,1,,4,5,,8,7h[8:1],,5,6,4,5,3,
26,,3,4,,1,8,,5,6h[8:1],,3,5,4,6,5,
74,,2,1,,4,5,,8,7h[8:1],,3,6,1,5,1,
4,3,4,2,8,1,7,1,6,5,7,5,84,,73,,
{8}2b/6<2[8:4],,1,,,,3h[8:3],,5,5h[8:2],4,4,6,6,5,,
7b/3>7[8:4],,8,,,,6h[8:3],,4,4h[8:2],5,5,3,3,4-2[8:1],,
{16}5b-1[8:1],,6,,4,,3,,6-8[8:1],6,,4,4-2[8:1],,3,,
5b-7[8:1],,6,,3-1[8:1],,2,,4-8[8:1],,5,,3,,,,
1b>4[8:1],,8<5[8:1],,1,,8,,3b,3h[16:3],,6,6h[8:1],,1,,
{16}6b,5,8,4,7,3,4,2,
7,7,5,5,4,4,2,2,
8>3[8:1],,7<4[8:1],,8,,7,,1>4[8:1],1,,6,6<1[8:1],,7,,3-5[8:1],,2,,7-3[8:1],,6,,1-7[8:1],,2,,6,,,,
1<6[8:1],,2>5[8:1],,1,,2,,8<5[8:1],8,,3,3>8[8:1],,2,,6-4[8:1],,7,,2-6[8:1],,3,,8-2[8:1],,7,,3,,,,
1/8b-4[8:1],,3-1[8:1],,8,,3,,5-7[8:1],5,,8,8-4[8:1],,1-3[8:1],,8b-6[8:1],,1-5[8:1],,8-4[8:1],,1-3[8:1],,8,,1,,5h[8:2],,,,
1b,5,3,5,3,5,3,5,1b,7,5,7,5,7,5,7,1b,5,3,5,1b,7,5,7,
4b,6,2,8,3b,5,1,7,
{8}2,17,3,17,4,1v4[8:1]/7v4[8:1],5,17,,1b/2,1bs5[16:4]/3,1b/4,1b/5s1[16:4],,,,2b,,
