&title=Limitless
&artist=草莓酱
&first=0.525
&lv_5=13+
&des_5=windancer@MMFC
&inote_5=
(145.01){4}1-7-5v7v1[2:3]*-3-5v3v1[2:3],,,,,,,,{1}8-2-4v2v8[2:3]*-6-4v6v8[2:3],
,{4}1>5[4:1],
5<1[4:1],1s5[8:1],{8}6,7,
{16}8,8,2,2,6,6,4,4,5,3,6,2,{8}7h[8:1],8,
6/2h[8:1],4,6/2,{16}5,6,{8}3/7h[8:1],5,7/3h[8:1],5,
1bx,2,3,4,{16}5bx,6,7,8,{32}1bx,2,3,4,5,6,7,8,
{1}Ch[8:63]/1bx-7-5-3-1v7v5v3v1[2:7]*V75V31v7v5v3v1[2:7],
,,,{4}1h[16:3],
1h[8:1],1h[16:3],1h[8:1],
1h[16:3],1h[8:1],1h[16:3],1h[8:1],
2h[16:3],2h[8:1],2h[16:3],2h[8:1],
3h[16:3],3h[8:1],3h[16:3],3h[8:1],
{16}3,5,3,5,2,2,6,6,{8}1h[8:1],{16}7,7,{8}4h[8:1],5,
6h[8:1],{16}5,7,5,7,5,7,4,4,8,8,1,6,2,5,
3,3,4,4,3,3,4,4,2,2,1,1,8,8,7,7,
5,5,1,1,3,3,4,4,1b,5,3b,5,1,2,3,4,
{8}1x/5x,2,{16}1,2,{8}3,{16}1,2,{8}3,{16}1,2,3,4,
{8}1/5,{16}2,3,{8}4h[8:1],5h[8:1],4h[8:1],{16}3,2,1,8,7,6,
{8}1/5h[8:1],2,{16}1/5,2,{8}3,8/4,7,{16}8/4,7,6,5,
4,4,5,5,6,6,7,7,2,6,2,6,1-5[8:1],7,1,7,
{8}1-6[8:1],{16}6,6,{8}1-4[8:1],{16}4,4,{8}1,{16}7,5,6,4,5,3,
{8}8h[8:1],7h[8:1],6h[8:1],5,{16}1,2,3,4,5/1,8,7,6,
{8}5/1h[8:1],2h[8:1],3h[8:1],4,{16}8,7,6,5,4/8,1,2,3,
4x,5,4,5,4x,5,3,7,2x,8,4,6,5x,7,1,4,
3,5,3,5,3,5,2,4,3,5,3,5,4,5,6,7,
{8}8h[8:1],{16}7,7,{8}5h[8:1],6h[8:1],7h[8:1],8h[8:1],1h[8:1],7,
5/2h[8:1],7,{16}3/5,3,{8}7,6/4h[8:1],8,{16}2,8,2,8,
1,1,7,7,3,3,5,5,2,2,6,6,4,4,8,8,
2-4[8:1],{8},{16}1,{8}2,5,{16}7-5[8:1],{8},{16}8,{8}7,4,
{16}3-1[8:1],{8},{16}4,{8}3,8,{4}8p4[8:1]*q4[8:1],8,
{16}7x-5[8:1],{8},{16}8,{8}7,4,{16}2-4[8:1],{8},{16}1,{8}2,5,
{16}6-8[8:1],{8},{16}5,{8}6,1,{4}1s5[8:1]*z5[8:1],1,
{16}2x>4[8:1],{8},{16}1,{8}2,5,{16}7<5[8:1],{8},{16}8,{8}7,4,
{16}3>1[8:1],{8},{16}4,{8}3,8,{4}8p3[8:1]*q5[8:1],8,
{16}7x<5[8:1],{8},{16}8,{8}7,4,{16}2>4[8:1],{8},{16}1,{8}2,5,
{16}6<8[8:1],{8},{16}5,{8}6,1,{4}1w5[8:1],1,
{1}B7/E7/B6/B2/E3/B3/E1/B8/B4/E5/Ch[4:15],
,,,{8}8/1,
1/8h[8:5],{16}1,2,{8}3,{16}2,3,{8}4,{16}3,4,5,6,
{8}1/8,8/1h[4:3],{16}8,7,{8}6,{16}3,4,{8}5,{16}6,5,{8}4,
8/1,1/8,{16}1/8h[8:1],2,{8}3,{16}2/8h[8:1],3,{8}4,{16}3/8h[8:1],4,5,6,
{8}7/3,{16}5,5,{8}5,7/3,{16}1,1,{8}1,7x/3x,5x/1x,
{1}1-7-5v7v1[2:3]*-3-5v3v1[2:3],
{8},,,,,,,8,
{1}8-2-4v2v8[2:3]*-6-4v6v8[2:3],
,{4}5/4h[16:3],
4h[8:1],5/4h[16:3],4h[8:1],
5/4h[16:3],4h[8:1],5/4h[16:3],4h[8:1],
5/4h[16:3],4h[8:1]/B5/B6,5/4h[16:3],4h[8:1]/B5/C,
5/4h[16:3],4h[8:1]/B5/B6,5/4h[16:3],4h[8:1]/B5/C,
{16}6,4,6,4,7,7,3,3,{8}8h[8:1],{16}2,2,{8}5h[8:1],4,
3h[8:1],{16}4,2,4,2,4,2,5,5,1,1,8,3,7,4,
6,6,5,5,6,6,5,5,7,7,8,8,1,1,2,2,
4,4,8,8,6,6,5,5,8b,4,6b,4,8,7,6,5,
{8}8x/4x,7,{16}8,7,{8}6,{16}8,7,{8}6,{16}8,7,6,5,
{8}8/4,{16}7,6,{8}5h[8:1],4h[8:1],5h[8:1],{16}6,7,8,1,2,3,
{8}8/4h[8:1],7,{16}8/4,7,{8}6,1/5,2,{16}1/5,2,3,4,
5,5,4,4,3,3,2,2,7,3,7,3,8-4[8:1],2,8,2,
{8}8-3[8:1],{16}3,3,{8}8-5[8:1],{16}5,5,{8}8,{16}2,4,3,5,4,6,
{8}1h[8:1],2h[8:1],3h[8:1],4,{16}8,7,6,5,4/8,1,2,3,
{8}4/8h[8:1],7h[8:1],6h[8:1],5,{16}1,2,3,4,5/1,8,7,6,
5x,4,5,4,5x,4,6,2,7x,1,5,3,4x,2,8,5,
6,4,6,4,6,4,7,5,6,4,6,4,5,4,3,2,
{8}1h[8:1],{16}2,2,{8}4h[8:1],3h[8:1],2h[8:1],1h[8:1],8h[8:1],2,
4/7h[8:1],2,{16}6/4,6,{8}2,3/5h[8:1],1,{16}7,1,7,1,
8,8,2,2,6,6,4,4,7,7,3,3,5,5,1,1,
8/7-5[8:1],{8},{16}8,{8}7,4,{16}1/2-4[8:1],{8},{16}1,{8}2,5,
{16}5/6-8[8:1],{8},{16}5,{8}6,1,{4}1q5[8:1]*p5[8:1],1,
{16}1/2x-4[8:1],{8},{16}1,{8}2,5,{16}8/7-5[8:1],{8},{16}8,{8}7,4,
{16}4/3-1[8:1],{8},{16}4,{8}3,8,{4}8z4[8:1]*s4[8:1],8,
{16}8/7x<5[8:1],{8},{16}8,{8}7,4,{16}1/2>4[8:1],{8},{16}1,{8}2,5,
{16}5/6<8[8:1],{8},{16}5,{8}6,1,{4}1q6[8:1]*p4[8:1],1,
{16}1/2x>4[8:1],{8},{16}1,{8}2,5,{16}8/7<5[8:1],{8},{16}8,{8}7,4,
{16}4/3>1[8:1],{8},{16}4,{8}3,8,{4}8w4[8:1],8,
{1}B7/E7/B6/B2/E3/B3/B1/E1/B5/E5/Ch[4:15],
,,,{8}1/8,
8/1h[8:5],{16}8,7,{8}6,{16}7,6,{8}5,{16}6,5,4,3,
{8}8/1,1/8h[4:3],{16}1,2,{8}3,{16}6,5,{8}4,{16}3,4,{8}5,
1/8,8/1,{16}8/1h[8:1],7,{8}6,{16}7/1h[8:1],6,{8}5,{16}6/1h[8:1],5,4,3,
{8}2/6,{16}3,4,{8}5,2/6,{16}7,8,{8}1,2x/6x,4x/8x,
{16}3h,5h,3h,5h,2h,2h,6h,6h,{8}1h[8:1],{16}7h,7h,{8}4h[8:1],5h,
6h[8:1],{16}5h,7h,5h,7h,5h,7h,4h,4h,8h,8h,1h,6h,2h,5h,
3h,3h,4h,4h,3h,3h,4h,4h,2h,2h,1h,1h,8h,8h,7h,7h,
5h,5h,1h,1h,3h,3h,4h,4h,1bh,5h,3bh,5h,1h,2h,3h,4h,
{8}5h/1h,8h,{16}8h[8:1]/1h,2h,{8}3h,{16}8h[8:1]/3h,2h,{8}1h,{16}8h[8:1]/1h,2h,3h,4h,
{8}5h[8:1]/1h,{16}2h,3h,{8}4h[8:1],5h[8:1],4h[8:1],{16}3h,2h,1h,8h,7h,6h,
{8}5h[8:1]/1h,2h,{16}5h/1h,2h,{8}3h,4h/8h,7h,{16}8h/4h,7h,6h,5h,
4h,4h,5h,5h,6h,6h,7h,7h,2h,6h,2h,6h,1>4[8:1],7h,1h,7h,
{8}1<6[16:1],{16}6,6,{8}1v4[16:1],{16}4,4,{8}1,{16}7,5,6,4,5,3,
{8}8h[8:1],7h[8:1],6h[8:1],5,{16}1,2,3,4,5/1,8,7,6,
{8}5/1h[8:1],2h[8:1],3h[8:1],4,{16}8,7,6,5,4/8,1,2,3,
4x,5,4,5,4,5,3,7,2,8,4,6,5,7,1,4,
3,5,3,5,3,5,2,4,3,5,3,5,4,5,6,7,
{8}8h[8:1],{16}7,7,{8}5h[8:1],6h[8:1],7h[8:1],8h[8:1],1h[8:1],7,
5/2h[8:1],7,{16}3/5,3,{8}7,6/4h[8:1],8,{16}2,8,2,8,
1,1,8,8,7,7,6,6,5,5,4,4,3,3,2,2,
{1}C/1b-7-5v7v1[2:3]*-3-5v3v1b[2:3],
{8},,,,,,,8,
{1}C/8-2-4v2v8b[2:3]*-6-4v6v8[2:3],
,4bV68V24v6v8v2v4b[2:3],
{8}C,{4},,,{8}5,
{1}5bV31V75v3v1v7v5b[2:3],
C,
{8}5x/4xh,6/2h,{16}5,4h,{8}3h,{16}5,4h,{8}3h,{16}5,4h,3h,4xh,
{8}5x,7/3,{16}4h,5,{8}6,{16}4h,5,{8}6,{16}4h,5,{8}6,
5x/4xh,6/2h,{16}5,4h,{8}3h,{16}5,4h,{8}3h,{16}5,4h,3h,4h,
{8}5x,{16}2-4[16:1],1,{8}2,A2,{16}7-5[16:1],8,{8}7,A7,C,
8/1>4[8:1],1/8,{16}5>2[8:1],6,{8}7,{16}1>4[8:1],8,{8}7,{16}5,6,{8}7h[16:1],
1/8<5[8:1],8/1,{16}4<7[8:1],3,{8}2,{16}8<5[8:1],1,{8}2,{16}4,3,{8}2,
1/8-5[8:1],8/1,{16}4-7[8:1],3,{8}2,{16}8-5[8:1],1,{8}2,{16}4,3,{8}2h[16:1],
8/1,{16}2,3,{8}5/4h[8:1],7,{16}7,6,{8}4/5h[8:1],2,1w5[8:29],
{1}1,
,,,{16}5/4h[16:3],
{8},{16}5,{4}4h[8:1],{16}5/4h[16:3],{8},{16}5,{4}4h[8:1],
{16}5/4h[16:3],{8},{16}5,{4}4h[8:1],{16}5/4h[16:3],{8},{16}5,{4}4h[8:1],
{16}5/4h[16:3],{8},{16}B5/B6,{4}4h[8:1],{16}5/4h[16:3],{8},{16}B5/C,{4}4h[8:1],
{16}5/4h[16:3],{8},{16}B5/B6,{4}4h[8:1],{16}5/4h[16:3],{8},{16}B5/C,{4}4h[8:1],
{1}Cf/4w8[4:7],
E
