&title=Heartbeats
&artist=RAMM feat. 若井友希
&first=0
&des=Cinno
&lv_1=2
&lv_5=13+
&inote_1=(170.0){1},,,,,,,,,
{1}2,
{1}2,
{1}1,
{1}1,
{1}8,
{1}8,
{1}7,
{1}7b,
{1}8h[1:1],,
{1}1h[1:1],,
{1}2,
{1}3,
{1}4,
{1}5,
{1}6,
{1}7,
{1}8,
{1}1,
{1}8,
{1}8,
{1}1,
{1}1b/8b,
{1}1-4[4:3],,
{1}8-5[4:3],,
{1}2-7[4:3],,
{1}6-3[4:3],,
{1}2,
{1}2,
{1}1,
{1}1,
{1}8,
{1}8,
{1}7,
{1}7,
{1}8b,
{2}1,1,
{2}2,2,
{2}3,3,
{2}4,4,
{2}5,5,
{2}6,6,
{2}7,7,
{2}8,8b,
{1}1h[1:1],,
{1}8h[1:1],,
{1}1/8,
{1}1/8,
{1}7/2,
{1}2/7,
{1}1h[1:2]/8h[1:2],,,,
{1}7,
{1}8,
{1}1,
{1}2,
{1}1b,
E
&inote_2=
&inote_5=(170.0){1},
{8}6,5,4,3h[8:3],{2}7x-4[4:1],
{8}2,3,4,5h[8:3],{2}2x>5[4:1],
{8}7,6,5,4h[8:3],{2}8x-5[4:1],
{8}2,3,{4}4-2-8[8:3],7x-5[8:1],,
{8}1,2,3,4h[8:3],{2}1x<6[4:1],
{8}2,1,8,7h[8:3],{2}5x-2[4:1],
{8}8,7,6,5h[8:3],{2}8x-4[4:1],
{8}5xb,3xb/7xb,,2xb,4xb/8xb,,Cf,,
{8}2-5[8:1],,1,1-6[8:1],,1-4[8:1],,1,,8xh[8:3],,,
{8}5,4,3,2,1-3[8:1],,5,5-7[8:1],,5-3[8:1],,5,,6pp1[2:1],,,2x-5[8:1],,,,
{8}7h[4:1],,1,1-5[8:1],,,6-8[8:1],,4h[4:1],,,48,37,,26,1pp4[8:5]/5pp8[8:5],,,,,,,,,
{8}4xb/8xb,3xb/7xb,2xb/6xb,1xb/5xb,4xb-8[8:1]/8xb-4[8:1],,Cf,,
{16}2x-5[8:1],,,,5,,6-8[8:1],,,,2,,3,,4,,5>2[8:1],,,,7,,,,8-4[8:1],,,,
{16}3,,,,2pp5[1:1],,,,8,,8h[8:5],,,,,,,,,,,,,,,,,,
{8}8-4[8:1],,4,3,2>5[8:1],,8,7,6<1[4:1],,
{8}1>4[4:1],,4<7[4:1],,7>2[4:1],,2>5[4:1],,5<8[4:1],,8>3[4:1],,,
{8}5x-2[8:1],5x-8[8:1],,,,
{16}1x/7x,,2,,8,1,7,,2x/8x,,7,,1,8,2,,
{16}6x-1[8:1],,,,1,,2-4[8:1],,,,5,,6,,7,,8>3[8:1],,,,4,,,,5-2[8:1],,,,
{16}6,,,,7qq4[8:7],,,,,,1pp4[8:4]b,,1,,,,,,,,,,,,,,,,
{8}6/1-5[8:1],,5,6,7<4[8:1],,1,2,3-6[4:1],,
{8}6-1[4:1],,1-4[4:1],,4-7[4:1],,7-2[4:1],,,,
{16}6xh[8:1],,4x,6x,3xh[8:1],,5x,,7xh[8:1],,4x,,2xh[8:1],,5x,,
{16}1b/B5,,,B3/7b,,,5b/B1f,,,,,,8x-4[8:1],,,,
{8}2h[4:1],,,2,8,,7,1,
{8},1v3[8:1],,1,5v7[8:1],,5,,
{8}3h[4:1],,,3,1,,5,7,
{8},8-4[8:1],,8,2-5[8:1],,2,,
{8}7h[8:3],,,4h[8:3],,,8-5[8:1],,
{4}8-3[8:1],8<5[8:1],8>3[8:1],,
{8}6h[1:1],,,1,,,3,,
{4}5b-1[8:1],,27,18,
{8}7xh[4:1],1,2,1,2xh[4:1],7,8,7,
{8}1/2,2,B6/2,2,1/3,3,B5/3,3,
{8}2xh[4:1],7,8,7,7xh[4:1],1,2,1,
{8}8/7,7,B3/7,7,8/6,6,B4/6,6,
{8}7h[4:1],5,4,3,2h[4:1],4,5,6,
{8}7h[4:1],,2-5[8:1],2,8-4[8:1],8,1-5[8:1],1,
{8}7b-4[8:1],,3b-8[8:1]/7x,,6b-3[8:1]/3x,,2b-7[8:1]/6x,,
{8}5b<4[2:1]/2x,,,1x,1xh[4:1],,,,
{16}2x,5,2,5,3x,6,3,6,4x,7,4,7,5x,8,5,8,
{8}6xb-2[8:1],,8,8<5[8:1],,1/8>3[8:1],,7/8-4[8:1],,4-8[8:1],,,
{8}3x,3x,6x/2x,6x/2x,1b/5b,,1,1>4[8:1],,8/1<6[8:1],,2/1-5[8:1],,5-1[8:1],,,
{8}7x,7x,6x/2x,6x/2x,
{16}1x,5,1,5,2x,4,2,4,3x,5,3,5,4x,6,4,6,2x,1,2,1,3x,8,3,8,4x,7,4,7,5x,6,5,6,
{16}4x,7,4,7,3x,6,3,6,2x,5,2,5,1x,4,1,4,
{16}2x,3,4,5,8x,7,6,5,8xw4[8:1],,,,,,,,2x/6x,,,,4b,,
{16}4-1[8:1],,,,6/4-7[8:1],,,,2/4-8[8:1],,,,8-4[8:1],,,,,,
{8}7x,7x,6x/2x,6x/2x,1b/5b,,5,5-8[8:1],,3/5-2[8:1],,7/5-1[8:1],,1-5[8:1],,,
{8}2x,2x,3x/7x,3x/7x,
{16}4x,6,4,6,3x,5,3,5,2x,8,2,8,1x,7,1,7,
{16}2x,3,4,5,1x,2,3,4,7x,6,5,4,8x,7,6,5,4xb<7[2:1]/8xb>3[2:1],,,,,,,,,,,,,,,,
{8}4xb/8xb,3xb/7xb,2xb/6xb,1xb/5xb,4xbq8[8:1]/8xbq4[8:1],,Cf,,
{8}3xp5[4:1],3x,5>1[4:1],6h[4:1],,,7b,,
{8}8p2[4:1],8,2<6[4:1],3h[4:1],,,4b,,
{16}3h[4:1],,8,7,6,,3,,5h[4:1],,8,1,2,,5,,
{16}1-5[8:1],,,7,1,,8-3[8:1]*-5[8:1],,,,,,,,,,
{8}8h[4:1],
{24}5,4,3,2,1,8,7,6,5,
{8}4x/8x,3x/7x,2x/6x,1x/5x,
{8}5h[4:1],
{24}8,1,2,3,4,5,6,7,8,
{8}1x/5x,2x/6x,3x/7x,4x/8x,
{16}1-5[8:1],,,2,1,,2,,3h[8:1],,,5,3,,
{24}8,7,6,
{16}5b/1b,,,7b/3b,,,5b/1b,,8b/4b,,,6b/2b,,,4b/8b,
E
&inote_6=
