&title=灼熱のユートピア
&artist=森永真由美
&first=-0.01
&des=Renekton vs. woxxow
&lv_5=14
&inote_5=(160)
{1},
{16}1h[8:3],,,,6,,5h[8:3],,,,3,,3,,,,
{16}7h[8:3],,,,4,,5h[8:3],,,,8,,8,,,,
{16}2,,3,,4h[4:1],,,,3,,4,,5h[4:1],,,,
{16}4,,5,,6,,7h[4:1],,,,1,,1x-5b[8:1],,,,
{16}8bz4[16:7]/Cf,,,,,,,,,,,,1x-5b[8:1],,,,
{16}8bV26-4b[2:1]/Cf,,,,,,,,,,,,2x,,,,
{16}1bh[16:3],,4,4h[16:3],,,3,,8bh[16:3],,5,5h[16:3],,,6,,
{16}7x/8x,,1,,2x/4x,,5,,5x/6x,4,3,2,8,7,6,5,
{16}1bx^4[16:2],,,6,1,,8x,,7-3[8:1],,4,,3,,2,,
{16}2x^5[16:2]/4x,,,7,2,,1x,,8-4[8:1],,5,,4,,3,,
{16}2^5[16:2],,,1,2,,8,,7^4[16:2],,,8,7,,1,,
{16}2/8,,3,5,,6,4,,3-8b[16:2]/7b-4[16:2],,,,,,,,
{16}2xh[16:2],,4,3,,8,1,,7-4[16:2]*-3[8:1],,,,7,,,,
{16}6xh[16:2],,4,5,,2,1,,3-5[16:2]*-6[8:1],,,,3,,,,
{16}3b/7x,,{32},,6x,5,4h[8:1],,,,{16}1x,,2x/6b,,{32},,3x,4,5h[8:1],,,,{16}8x,,
{16}2b/1b,,8,,75,,4,,43,5,6,7,1,2,3,4,
{16}8b,,,5,6,,1,,8^3[8:1]/1,,7^4[8:1],,,,,,
{16}1,,,4,3,,8,,1v6[8:1]/8,,2^5[8:1],,,,,,
{16}7x,,,5,6h[4:1],,8,,1x,,,4,3h[4:1],,2,,
{16}8x,,4,5,3,,26,,4^1b[8:1]/8^5[8:1],,,,,,,,
{16}4,,,2,1,,8h[4:1],,1^4[8:1],,1^6[8:1],,,,,,
{16}5,,,7,8,,1h[4:1],,8^5[8:1],,8^3[8:1],,,,,,
{16}4,,6,5,7,,4,,6/5^2[8:1],,7^2[8:1],,,,,,
{16}4,,4,,3/5,,2/6,,7,8,6,1,5,2,4,3,
{8}4bx<7[32:15]*q8[32:15],,,,,,,,
{4}5<1[4:2]*q1[4:2],,,,
{4}6<3b[32:17]*q3[32:17],,,,
{8}E8,E1,E2,,{4}E4/E5/E6,,
{8}4qq4[32:15],,,7h[8:3],,,,,
{8}6pp5[4:2],,,2h[8:3],,,,,
{8}3qq5b[32:17],,,6h[8:3],,,,,
{8}E7,E8,E1,E2,E3,,8bx/1bx,,
||要么都不采三连
用星星
要么采成紫雷切
{8}2-6[16:2],2,5,5,1-7[16:2],1,4,4-8[8:1],
{8},1q6[32:7],,{16}6<3[16:4],,,,5h[16:4],,,,,,
{16}4-1[16:2]/6-1[16:2],,,,,,,,3/7,,,,2h[16:2],,E2,,
{8}3h[16:2],E1,4h[16:2],E8,5-1[16:2],E7,5,,
{8}7-3[16:2],7,4,4,8-2[16:2],8,5,5,
{8}1,8,2^5[16:2]/7,,5qq6[16:4],,6,,
{16}7xw3[16:2],,,,,,,,4^7[16:2],,3,,2,,
{16}1^4[16:2],,2,,5^8[16:2],,6,,2-6[16:2]*^5[8:1],,1,,2,,,,,,
{16}2x,6,3,5,2,6,3,5,1w5b[16:2],,,,,,,,
{16}7bx^4[16:2]/3,,,1,7,,2xh[8:1],,1^6[8:1],,1,,3,,4,,
{16}6bx^3[16:2]/5,,,8,6,,2xh[8:1],,1p5[32:5],,1,,3,,2,,
{16}8-4[16:2],,,6,8,,7,,1-5[16:2],,,3,1,,2,,
{16}7/8,,6,5,,3,4,,2bh[4:1]/7bh[4:1],,,,{48},E7/E3,B6/B3,B5/B4,E5,,,,,,,,
{16}7xh[16:2],,5,6,4,5,3,,2-6[8:1],,,,12,,,,
{16}8xh[16:2],,5,7,4,6,3,,1-6b[8:1]/2-6[16:2],,,,12,,,,
{16}5b,,7,8h[8:1],,6,1h[8:1],,4b,,2,1h[8:1],,3,8h[8:1],,
{16}5,,46,,37,,2x,8x,1x,5,3,5,2,6,4,6,
{16}3bx-8[16:2],,,4,3,,7xh[8:1],,5^2[8:1],,5,,7,,8,,
{16}2bx^7[16:2]/1,,,4,2,,6xh[8:1],,5-1[8:1],,5,,7,,6,,
{16}4-8[16:2],,,2,4,,3,,5-1[16:2],,,7,5,,6,,
{32}4,,1,,4,,1,,{24}3x,2,1,8,7,6,{32}4bxpp5b[32:6],3bx,2bx,1bxh[32:5],,,,,{16},,,,
{16}2xh[16:2],,4,3,5,4,6,,7-3[8:1],,,,87,,,,
{16}1xh[16:2],,4,2,5,3,6,,8-3b[8:1]/7-3[16:2],,,,87,,,,
{32}6x,5,4h[8:1],,,,2x,3,4h[8:1],,,,{16}8,,{32}7x,6,5h[8:1],,,,3x,4,5h[8:1],,,,{16}1,,
{16}2b/1b,,8,,75,,4,,2x,4,3,7x,5,6,3x,4h[16:29],
{1}1pp5[32:17],
{4}6>2[8:2],,,1b,
{4}D8f/E8/B7/B8/A7/A8/2b^5b[8:1],,D1f/E1/B1/B8/A1/A8/6b^3b[8:1],,
{16}25,,3,4,3,,25,,47,,6,5,6,,47,,
{16}2,5,4,7,1,6,3,8,1b,5,3b,7,{32}1b,2,3,4,5b,6,7,8,
{16}1bw5b[8:1],,,,,,,,3/7-3[8:1],,4^1[8:1],,7,,4^7[8:1],,
{16},,1x-5[8:1],,,,8x,,,,3xh[8:1]/7xh[8:1],,,,3x/7x,26,
{16}1q5[8:1]/5q1[8:1],,,,,,,,37,,4^1b[8:1],,1^6b[8:1],,4bx,,
{16},,{24}4bx,3,2,1,8,7,6bx/D4,D3,D2,D1,D8,D7,{16}5bx-8[8:1],,,,5,,
{16}1,1,{24}2,3,4,{16}5bh[4:2]/1b>7b[8:2],,,,,,,,,,3,2,
{16}1/8,,7,5,,2,4,,{16}3-8b[8:1]/7-4b[8:1],,,,,,,,
{16}1,5,2,5,3,5,4,5,3x,7,3x,6,3x,5,3x,4,
{16}3,2,3x,1,2,8,1x,7,8,7,6x,7,{32}5-8[8:1],4,3,2,,,,,
{16}5b,,2h[8:1],,4-1[8:1],,6,,4/8,,7h[8:1],,5-8[8:1],,3,,
{16}5b/1b>5qq6b[4:3],,,,,,,,,,,,,,,,
{16}8h[1:1],,,,,,A7/E7,,,,A1/E2,,,,,,
{16}2h[1:1],,,,,,A3/E4,,,,A1/E1,,,,,,
{16}4h[2:1],,,,,,,,5h[2:1],,,,,,,,
{16}7h[4:3],,,,,,A6/E6,,,,8,,8b-4[8:1],,,,
{16}1,,3,3,5,,2h[16:5]/6,,8x,,,4,1-5[8:1],,7,,
{16}8,,6,6,4,,3/7h[16:5],,1x,,,5,8-4[8:1],,2,,
{16}1x/8x,,3,3,1-5[8:1],,2,,1x/8x,,6,6,8,,7,,
{24}2,3x,4x,6,5x,4x,1,2x,3x,7,6x,5x,{32}1,E2,B2,B3,7,E7,B6,B5,8b,B8,C,B4,,,,,
{32}6,5,{16}6,3,3,4,4,1,1,{32}7,6,5,4,3,2,1,8,{4}7b/Cf,
{16}2x-5[16:2],,3,4,2,,6x,,37,,2,,18,,7,,
{16}6xV84[16:4]/4x,,7,5,6,,3x,,3,,26,,37,,48,,
{16}5^2[16:2],7,,7,5,,6,,4^7[16:2],2,,2,4,,2,,
{16}18,,2,4,,7,5,,8w4b[16:2]/4,,,,Cf,,,,
{16}2xhb[16:2],,4,2,5,3,6,4,7-4[16:2],,8,,17,,,,
{16}7xhb[16:2],,5,7,4,6,3,5,2-5b[16:2]/4-8b[16:2],,1,,24,,,,
{16}37,,2,1,,8,1,,24,,6,5,,4,5,,
{16}26,,26,,37,,37,,8,2,8,2,6,4,6,4,
{16}7x-4[16:2],,6,8,7,,1x,,26,,7,,18,,2,,
{16}3xV15[16:4]/5x,,2,4,3,,6x,,6,,73,,62,,51,,
{16}4-8[16:2],2,,2,4,,3,,5-1[16:2],7,,7,5,,6,,
{16}2x,8,3,7,{24}4x,5,6,7,8,1,{32}5bx-1b[16:2]/2x,6bx/3x,7bx/4x,8bx/5x,,,,,,,,,,,,,
{16}3hb[16:2]/7,,1,3,8,2,7,1,6^3[16:2],,5,,26,,,,
{16}6hb[16:2]/2,,8,6,1,7,2,8,3^6b[16:2]/1^6b[16:2],,2,,13,,,,
{32}7h[32:5]/4x,3,2h[32:4],,,,6x,5,4h[32:4],,,,8,,,,2h[32:5]/5x,6,7h[32:4],,,,3x,4,5h[32:4],,,,1,,,,
{8}6x/8,5x/7,4x/6,3x/5,4w8[16:2]/2x,,,,
{4}2xqq4[16:10],,,,
{4}8xz4b[2:1],,,3bx,
{4}1^4b[16:2]*^6b[16:2]/B5/A5f/E6/E5,,{4}8^5b[16:2]*^3b[16:2]/B4/A4f/E4/E5,,
{16}35,,6,5,7,,28,,28,,4,,78,,25,,
{16}3,4,2,1,4,5,2,1,5,6,2,1,{32}5,6,7,8,1,2,3,4,
{16}5hx[16:2],,7,7,3h[16:2],,6,,1h[16:2],,4,4,3xh[16:2],,7x,,
{16}8h[16:2]/4,,2,2,6h[16:2],,1,,4h[16:2],,3,3,6xh[16:2],,5x,,
{16}17,,3,5,3,5,4,,28,,6,4,6x,4,5x,,
{16}3,7,2,6,1,5,8,4,{32}1,2,3,4,5,6,7,8,1/Cf,,,,,,,,
{16}8x-4[16:2]/3,,,2,8-6[16:2],,3,,8-4[16:2],,2,2,8x,,3x,,
{16}1x-5[16:2]/6,,,7,1-3[16:2],,6,,1-5[16:2],,7,7,1x,,6x,,
{16}2/8-4[16:2],,6,4,8,3,3,,7/1-5[16:2],,3,5,1x,6,6x,,
{16}4,7,3,8,2,6,1,5,{32}3,4,5,6,7,8,1,2,3/7,6,5,4,3,2,1>8b[32:106],8,
{4}7qq2b[4:13],,,,
{1},,,
{8}5h[16:12],,E6,E5,,,3h[1:1],,
{8}C,,E3,E4,,,7h[8:9],,
{8}D2,D1,D8,D7,,,,1h[32:11],
{8},{32},,,E8,E1,E2,,
