&title=終の舞姫
&artist=Se-U-Ra
&first=1.22
&des=IsxI
&lv_5=14++
&inote_5=(202){6}2b/7b,3,3,5,4,3h[6:1],5h[3:1],4,4,6,{12}3,4,3,,{6}7h[6:2],5,4,37,6,5,2,3,{12}6,5,6,,1,2,3,4,6h[6:5]/5,,E8,,E1,,E2,,,,3,,5/6h[6:5],,E8,,E1,,E2,,,,3,,18,,D2/E2,,A7/B7,,E4/A3,,A6,D6,A5,,2h[6:3],,B1,B2,B3,,B7/E8,,B4/E4,,Chf[6:1],,1b,,,2x/7x,,,3,,5,4,6,,
25,,4,25,,2h[12:2]/5,,4,4,3,5,,74,,4,56,7,1/8h[12:2],,1,1,2,3h[12:1],,8b,7,6,1,2,3,7,6,2,3,6,5,4bh[12:3],,{24},,,{8},35,,26,,{24},,{6}5b,4b/6,3/7b,3b/5b,2b/6b,1b/7b,8x<1[8:6],,,,,,{12}8h[8:4],,,1,,1,,,,2b/7b,,,5xb/4xb>5b[8:20],,,5h[4:1],,,,,,5h[4:1],,,,,,4h[4:1],,,,,,3h[4:1],,,,,,2h[4:1],,,,,,1h[4:1],,,8b,,8,1,,1,7,5,6,2,4,3,6-8[8:1],,,56,,,6-1[8:1],,,56,,,6,,7,1,,8,2-4[8:1],,,12,,,
6-8[8:1],,,56,,,6-1[8:1],,,56,,,7b/3bh[12:3],,8,7,6,5,4/1xb-4[8:1]b,,,1b/4b,,,
6-8[8:1],,6,5,,5,6-1[8:1],,6,5,,5,6,,7,1,,8,2-4[8:1],,1,12,,,
6-8[8:1],,6,4,,5,6-1[8:1],,6,4,,5,6,4,7,1,1,8,2-4[8:1],2,1,12,,,
6-8[8:1]b,6,5,4,,5,6-1[8:1]b,6,5,4,,5,6,6,8,7,7,1,8-4[8:1]b,8,1,2,,,
6-8[8:1]b,6,5,4,,5,6-1[8:1]b,6,5,4,,5,7b,6,5,6,5,4,5,4,3,2b/6b,,,
3-1[8:1]b,3,4,5,,4,3-8[8:1]b,3,4,5,,4,3,3,1,2,2,8,1-5[8:1]b,1,8,7,,,
3-1[8:1]b,3,4,5,,4,3-8[8:1]b,3,4,5,,4,2,3,4,3,4,5,6,5,4,36,,,
5/4h[12:3],,,5,,5h[12:1],3,,,53,,,3h[12:3]/6,,,6,,6h[12:1],2,,,2h[12:2]/6,,7,
1,1,1,1,1,1,3,1,1,1,1,1,2,2,2,6,6,6,4,4,4,8,8,8,
{32}8h[8:6]/4x,3x,,,4,,,,4,,,,4x,5x,,,4,,,,4,,,,4x,3x,,,,,,,1h[8:6]/5x,6x,,,5,,,,5,,,,5x,4x,,,5,,,,5,,,,5bx,,,,,,,,
{12}2b/7b,,5,4,,4,6,,16,7,,2,13,,3,5,,46,5,,5,46,,,2b/7b,,4,5,,5,3,,21,8,,8,1/7bh[12:9],,,,,B3/E3,,,,B5/E6,,,2b/7b,,5,3,,3,8b,,7xb/1xb,,,17,26,,3,5,,36,4,,5,46,,27,2b/7b,,8,1,,1,7,,36,4,,6,5V31[12:5]/7h[12:3],,,,,1-7[12:2],,,,C,,,
5b^8[4:1],,,8^3[4:1],,,3^6[4:1],,,6^8[6:1],,,2h[12:3],,,1,,3h[12:1],4,,4,6h[12:3],,,
5b^2[4:1],,,2^7[4:1],,,7^4[4:1],,,4^2[6:1],,,8h[12:3],,,1,,7h[12:1],6,,6,45,,,
5h[8:12]/4b>4^2^8^6^4^3^2^1^8^7^6^5^4b[8:11],,,,,,,,,,,,,,,,,,,,,3x/7x,,7,1,1,1,1,1,1,8,8,8,8,8,8,{24}2,,2,3x,2,,6,,6,5x,6,,4b-8[8:1]b,,,,,,8b,,,,,,
{12}7h[48:59]/D1f,D2,D3,D4,D5,D6,D7,D8,D1,D2,D3,D4,4hx[12:12],,,E7,E6,E5,E4,E3,E2,E1,E8,E7,E6,B5,B4,E4,,2,E2,B1,B8,E8,,6h[12:1],{24}1,,A2,D3,A3,,6,,A7,D8,A8,,{12}2,2,2,2x/1xh[12:12],,,4^6[8:1],,,,,,3^5[8:1],,,,,,2-4[8:1]/7-5[8:1],,,,,,1-3[8:1]/8-6[8:1],,,,,,
2,2,2,12,,4,7,7,7,78,,6,{24}1x,,E1,E8,A7,,2x,,B2,C,B6,,3x,,E4,E5,A5,,6x,,,,3,,{24}8,,E1,E2,A2,,7,,B7,C,B3,,6,,E6,E5,A4,,3,,,,{12}3,D1/E1f/E5/D5/Ch[12:12],,,,,,,,,,,,7x,,8x,,1x,,2x,,,27,,6,2b,4,3b,7b,5,6b,3b,4,2b,6b,5,7b,1b,5,3b,8b,4,6b,2b-6[8:1],,,8b-4[8:1]b,,,
{48}4pp7[12:10],Cf,,,{12},3,,2,,1,,8,,7pp2[12:10],,6,,5,,4,,3,,2pp5[12:10],,1,,8,,7,,6,,5pp8[12:10],,4,,3,,2,,1,,8,,7h[12:6],,,,,,8bqq5[12:10],,1,,2,,3,,4,,5qq2[12:10],,6,,7,,8,,1,,2,,3,,4,,4,,4,,3h[16:1]/5h[16:1],,3h[16:1]/5h[16:1],,3h[16:1]/5h[16:1],,4h[12:1]/6h[12:1],,3h[12:1]/7h[12:1],,2h[12:1]/8h[12:1],,3h[8:1]/5h[8:1],,2h[8:1]/6h[8:1],,7h[8:1]/1h[8:1],,8bpp5[12:9],,,2,,5h[12:1],,,4h[12:1],,,3,3pp1[12:8],,6h[12:1],,,7,7,,,8,,,2xqq7[12:20],4,3,5,4,5,2x,4,3,5,4,5,2x,4,3,5,4,5,2b,,,5b,,,8b,,,
{4}56,46,35,43,25,16,{12}78,,7,2,2,2,8,8,1,7,7,7,1,1,8,{24}2,,5x,4,3,,7,,4x,5,6,,{12}2,2,4,3,3,5,C,,,E6,,E3,E7,,E1,E2,,,5xh[12:9]/6x<4[12:8],,,,,,,,,,,,5b/6h[12:5],,,8,1,2,3h[12:3],,,1qq6[12:9],,,4,,,,,,4,,,,,,5/6h[12:5],,,8,1,2,3h[12:3],,,7h[4:1],,,1h[4:1],,,5h[4:1],,,3h[4:1],,,1,,,
4/3h[12:5],,,1,8,7,6h[12:3],,,8pp3[12:9],,,5,,,,,,5,,,,,,4/3h[12:5],,,1,8,7,6h[12:3],,,1h[4:1],,,5h[4:1],,,2h[4:1],,,4h[4:10],,,3h[4:1],,,{32},E4,B4,B5,B6,,,,,,,,,,,,,,,,,,,,,,,,,,,,,,,,,,,,,,,,,,,,,,,,,,,,,,,,,,,,{24},B4,Ch[12:23],,,,,,,,,,,,,,,,,,,,,,,,,,,,,,,,,,,,,,,,,,,,,,
{12}1x,,,,,,2x,,,,,,3xh[12:3]/6xh[12:3],,,,,,4xbh[12:2]/5xbh[12:2],,,{24}3xb/6xb,2xb/7xb,1xb/8xb,,,,{64}
2b/7xb,D3/E3,3xb,D4/E4,4xb,D5/E5,5xb,D6/E6,6xb,D7/E7,7xb,D8/E8,8xb,E1/D1,1xb,E2/D2,
2xb,D3,3x,D4/E4,4xb,D5,5x,D6/E6,6xb,D7,7x,D8/E8,8xb,D1,1x,D2/E2,
2x,D3,3x,D4,4x,D5,5x,D6,6x,D7,7x,D8,8x,D1,1x,D2,
2x/Cf,,,,,,,,,,,,,,,,
{12}43,3,1,12,,4,56,6,8,78,,5,2,4,3,3,6,5,7,7,{24}6x,5,4,,{12}3,{24}2x,1,{12}
6v1[8:1],8,8,8b,,2,8-4[8:1],5,5,5b,,2,16,8,7,16,8,7,1pp2[6:1]b/6,8,7,16,,,
7,5,5,3,4,4,6,4,5,3,{24}5,4,5,,{12}3,6,6,4,7,7,1,8,7,{24}8,1,2,3,4,5,{12}6x,4,37,37,,5,6,4,37,37,,6h[12:1],1b,3,5,2,4,6,3,{24}4,5,6,,{12}5,6,7,
1x,2x,3x,8x,1x,2x,7x,8x,1x,6x,7x,8xh[12:12],
B6,B5,B4,B3,,E3,E4,E5,E6,E7,,,A1,A2,A3,A5,A6,A7,1,2,3,4h[12:14],,,B7,B8,B1,B2,,E3,E2,E1,E8,E7,,5,2,3,4,3,4,5,6,5,4,3,,,
2b,5,3,5,4,5,6,5,7,5,8,5,1b,6,2,6,3,6,4,6,5,6,7,6,1b,8,8,8,8,8,7b,8,8,8,8,8,
{24}1,,7,6,5,,2,,6,5,4,,{32}2,3,4,5,6,5,4,3,2,,,,,,,,{12}6h[12:6]/2q6v3^5q1[12:8],,,,,,,,,,,,
{48}2b,3x,4x,5bxh[48:9],{12}6,6,6-1[8:1]b,,4,A6f,3,3,3,,7,
{48}2b,3x,4x,5bxh[48:9],{12}6,6,6v1[8:1]b,,4,A6f,2,2,34,,,
{48}2b,3x,4x,5bxh[48:9],{12}6,6,6^1[8:1]b,,4,A6f,3,3,3,,7,1,5,3,8,4,6,8,17,17,17,,,
{48}7b,6x,5x,4bxh[48:9],{12}3,3,3-8[8:1]b,,5,A3f,7,7,7,,2,
{48}7b,6x,5x,4bxh[48:9],{12}3,3,3v8[8:1]b,,7,A3f,5,5,5,,,
{48}7b,6x,5x,4bxh[48:9],{12}3,3,3^8[8:1]b,,5,A3f,6,6,6,,2,6,4,5,3,5,4,7,8,16,16,,,
{48}2b,3x,4x,5bxh[48:9],{12}6,6,6-1[8:1]b,,4,A6f,2,2,2,,3,
{48}7b,6x,5x,4bxh[48:9],{12}3,3,3v8[8:1]b,,5,A3f,7,7,7h[12:1],,,
{48}2b,3x,4x,5bxh[48:9],{12}6,6,6^1[8:1]b,,4,A6f,3,3,3,,7,1,5,3,8,4,6,8,17,17,17,,,
3b/6b,5,4,3,4,5,3b/6b,4,5,6,5,4,3b/6b,4,4,3b/6b,5,5,3b/6b,4,5,3b/6b,,1,27,38,41,4h[12:2]/1h[12:1],,8,72,61,58,5h[12:2]/8h[12:1],,,1b,6,6,{24}2,,2,3,4,,7,,7,6,5,,{12}4,4,5,2b,6,4,{24}5,,3,4,5,,4,,6,5,4,,3h[12:2]/6h[12:2],,,,,,{24}2b/7b,6,5,4,3,2,1,8,7,6,5,4,3b/Cf,,,,,,{12}36,27,1x/8b,1b/8x,1x/8b,1b/8x,1x/8b,1b/8x,1x/8b,1b/8x,1x/8b,1b/8x,1x/8b,1b/8x,1x/8b,,,,,,,,,,,,,,,7xh[12:9],,,,Ch[12:3],,,,,,,,3,,3,,3/5h[12:4],,,,4,,5,,2,,2,,2/6h[12:4],,,,4,,6,,5,,4,,36,,7,,8,,1,,2,,3,5,4,,6,5,4,3,26,,2,,8,,2h[12:6],,,,,,E5,,,
