&title=スイートサイン
&artist=岬なこ
&first=0
&des=reflectW
&lv_5=11+
&inote_5=(109)
{1},,
{1}1h[4:4],
{1}5h[4:2],
{1}4h[4:4]/6h[4:4],
{16},,,,,,4,35,,1^4[12:1]/7^4[12:1],,8,,,,,
{8}1-4[12:1],,5-8[12:1],,3-6[12:1],,8,,
{8}7-5[12:1],5,7,,2-4[12:1],4,2,,
{8}5b-8[12:1],,1-4[12:1],,7-2[12:1],,4,,
{8}3-1[12:1],5,3,,6-8[12:1],4,6,,
{16}4qq3[8:1]/8h[4:1],,,,,,,7,,,64,,1,,,,
{16}5pp6[8:1]/1h[4:1],,,,,,,2,,,35,,8,,,,
{16}3pp4[8:1]/8h[4:1],,,,,,,7,,,64,,1,,,,
{16}6qq5[8:1]/1h[4:1],,,,,,,3,4,,6,5,7,4,,,
{16}4-2[12:1]/6-4[12:1],,,,46,,,17,,,26,,48,,,,
{16}5-7[12:1]/1-3[12:1],,,,51,,,82,,,73,,51,,,,
{16}3-1[12:1]/8-6[12:1],,,,38,,,35,,,62,,48,,,,
{16}3^8[12:1],,,,5v2[12:1],,,,4v7[12:1],,,,6<3[16:8]*q3[16:8],,,,
{16},,,,,,,,,,,,4-8[12:1],,,,
{8}6-1[12:1],,3,,2-5[12:1],1,2,,
{8}3-8[12:1],,6,,7-4[12:1],8,7,,
{8}4qq4[4:1]*pp4[4:1],35,4,,{16},,6,5,7,,,,
{16}1pp5[4:1],,,,,,7,,,,64,,3h[48:1],,,,
{16}8qq4[4:1],,,,,,2,,,,35,,8,,,,
{16}3pp8[4:1],,,,,,6,,,,71,,4h[48:1],,,,
{16}6qq1[4:1],,,,,,3,,,,28,,5,,,,
{4}3-8[12:1],6-1[12:1],2-5[12:1],7,
{4}7-4[12:1],2-5[12:1],6-1[12:1],3,
{16}4-2[12:1],,3,,5-7[12:1],,6,,2,,2,,1/8,18,18,18,
{16},,,,,,,,,,,,,,3,,
{16}4h[4:1]/2,,1,,8-4[24:1],,1,8,,3,,3,4,,6,,
{16}5h[4:1]/7,,8,,1-5[24:1],,8,1,,6,,6,5,,43,,
{16}5h[4:1]/2,,1,,8p4[24:1],,2,8,,3,,3,5,,56,,
{16}4h[4:1]/7,,8,,1q5[24:1],,7,1,,6,,6,4,,3,4,
{16}2h[4:1],,1,,8^3[24:1],,7,8,,5,,4,6,,6,5,
{16}7h[4:1],,8,,1^6[24:1],,2,1,,4,,5,3,,5,4,
{16}5V71[4:1],,,,1<5[4:1],,1,,,,4pp4[4:1],,,,4qq4[4:1],,
{16},,8,,7,,6,,5pp8[4:1],,4,4,,,,,
{16}3-1[12:1],,4,,5-7[12:1],,4,,3-1[12:1],,4,,5,,,,
{16}7-4[12:1],,4,,7,,,,2-5[12:1],,5,,2,,,,
{16}6-8[12:1],,5,,4-2[12:1],,5,,6-8[12:1],,5,,4,,,,
{16}5w1[12:1],,46,,5,,,,3qq4[4:1]/5pp4[4:1],,26,,3b/5b,,,,
