&title=空中散歩
&artist=CIEL
&first=-0.57
&des=星雪
&lv_5=13+
&inote_5=(168)
{4},,,,
{1}2<3[1:7],4,5,6,7,8,1,
{4}2,,,
1qq6[2:1],1h[2:1],,,
5qq2[2:1],5h[2:1],,,
3qq8[2:1],3h[2:1],,,
7qq4[2:1],7h[2:1],,,
2qq7[8:3],2h[2:1],,8h[32:1],
6qq3[2:1],6h[2:1],,,
2qq5[2:1],2h[2:1],,,
7V51[2:1],4,3,2,
{8}
,,1>4[8:1],,8,,7-3[8:1],,8,,1h[4:1],,8,2,6,3,5-1[8:1],4,5-2[8:1],,5-7[8:1],,5,,1-3[8:1],8,1-6[8:1],,1-5[8:1],,1,,,,3h[4:1]/5,,6,4,7h[4:1],
,2,2,5,4,7,7,3h[4:1],,7,8,1<5[8:1],,2,1,8>4[8:1],,7pp2[2:1],,7,,,,,
{8},,,
3h[4:1]/5h[4:1],,,{16}4,6,{8}2q7[8:1],,,,
6h[4:1]/1h[4:1],,,{16}8,2,{8}6q4[8:1],,,,
{8}2,2,5,5,4,4,7,7,{4}68,13,27,,1q5[8:1]/5q1[8:1],5>2[8:1]/1<6[8:1],,
4>1[8:1],4<7[8:1],4-8[8:1],4,
1pp3[8:1]/7q5[8:1],17,8qq6[8:1]/2p4[8:1],82,
1>4[8:1],1<6[8:1],1w5[8:1],1,
1>5[4:1],5p7[4:1],7>4[4:1],5,
8<4[4:1],4q2[4:1],2<5[4:1],4,
2-4[8:1],12,8-4[8:1],87,
1-7[8:1]/5-3[8:1],1-6[8:1]/5-2[8:1],1-5[8:1]/5-1[8:1],15,
2>5[8:1],7>2[8:1],6>3[8:1],1,
7<4[8:1],2<7[8:1],3<6[8:1],8,
1-5[8:1]/2-4[8:1],12,8-4[8:1]/7-5[8:1],87,
1-3[8:1]/8,8-6[8:1]/1,1-5[8:1]/8-4[8:1],18,
1<5[4:1],5p7[4:1],7>3[6:1]*p3[6:1],,
8>4[4:1],4q2[4:1],2<6[6:1]*q6[6:1],,
3-8[8:1],43,6-1[8:1],56,
2-4[8:1]*-5[8:1],2-7[8:1]*-8[8:1],2w6[8:1],2,
{8}38,38,
2h[8:3],1,1,1,7h[8:3],5,5,5,46,
{16}3,4,{8}3,2,1v4[8:1],,1,8,7qq5[8:1],,
7,8,1,2v5[8:1],8,2,,82,82,71,7h[4:1]/1h[8:3],,,,
7h[8:3],1,1,1,2h[8:3],5,5,5,46,
{16}6,5,{8}6,7,8-5[8:1],,8,1,2p4[8:1],,1,8,7,6,5,5,
1,28,37,46,8,17,26,35,4b,
{8}4,5,3,6h[4:1],,2,1,8q6[8:1],,8,,4,5,3,6,2V84[4:1],2,7,7,6,,7qq4[2:1],7,8,8,1,1,2-6[8:1],
,,,7,7,4,6,3h[4:1],,5,5,1>4[8:1],,1<6[8:1],,1,,2,1,8<5[8:1],,8>3[8:1],,8,,1qq4[2:1]*pp6[2:1],,1b,,,,,,
2>5[4:1],,5>1[4:1],5,6,6,7,,
7<4[4:1],,4<8[4:1],4,3,3,2,,
1v4[8:1]/5v8[8:1],,51,,3,3,6,4,7h[4:1],,1-5[8:1],8,1-3[8:1],6,1,
,5qq2[2:1],5,6,6,7,7,8,,
1qq6[2:1],1,2,2,3,3,4,,
18,18,27,,1,5,2,6,3,7,2-5[8:1]/6-1[8:1],,26,,37,
,,,4,4,3,{16}3,4,{8}2h[8:3],,,5,5,5,6,{16}6,4,{8}7h[8:2],,1,2,37,6,25,3,47,6,{16}35,,4,6,4,,5,3,5,,2,4,2,,7,5,7,,,,
{8}
1>4[8:1],,1<6[8:1]/7,,13,,
2-4[8:1],1-5[8:1],2-6[8:1],1-7[8:1],2qq5[4:1],1,2,,
6,7,8<4[8:1],,4,3,2>6[8:1],,
1,8,7-3[8:1],6,7/1-5[8:1],2,16,,
7,6,5-2[8:1],,5-8[8:1],,5,
{8},1,2,3p7[8:1]/7p3[8:1],,3<6[8:1]/7>2[8:1],,,
,37,48,5h[8:1]/1h[8:1],,
4,8,3,7,1-3[8:1],7-5[8:1],1-5[8:1],7-3[8:1],1qq4[4:1],7,1,,
6-1[8:1],6,6b/3-8[8:1],,3b/7-4[8:1],,7b/1,,
2-4[8:1],8-5[8:1],2-6[8:1],8-4[8:1],2q7[8:1],8,2,,
8,8,1<6[8:1],,
2-5[8:1],2,7-2[8:1],7,4-8[8:1],3-1[8:1],4-6[8:1],3-7[8:1],4qq8[4:1],3,4,,
1-5[8:1],1,1b/6-3[8:1],,6b/2-5[8:1],,2b/8,,
3,7,1pp5[4:1],6,1,,1,,
8,7,6-3[8:1],,
2-6[8:1],2,8-4[8:1],8,3-7[8:1],3,5w1[8:1],,
5,,37,,28,28,
1>4[8:1],1,8,7,6<1[8:1],5,4,3,2>5[8:1],1<6[8:1],2,1,,
5,2,7,
8<5[8:1],8,1,2,3>8[8:1],4,5,6,7-3[8:1],8-4[8:1],7,8,,
3,2,1,8h[4:1],7,7,,5h[2:1],3,2,1,{12}8>3[8:1],,7,{8}8,6,,
46,37,28,1b-5[8:1],,1bw5[8:1],,1b,,
7-4[8:1],2<8[8:1],7-3[8:1],2-5[8:1],7,2,,
6h[4:1],3,2,{16}1/5b,2,3,4,5/1b,6,7,8,1h[8:1]/5b,,{8}
,26,3,47,{16}6,5,{8}7pp3[4:1],4,7,,
2,1,8>3[8:1],,8/6,7,84,{16}3-7[8:1],1,{8}2,3,{16}6,8,{8}5-7[8:1],1-3[8:1],5,1,,
7h[8:1],8,{16}1/5b,2,3,4,5/1b,6,7,8,1-6[8:1]/5b,,{8}
,1,2,35,{16}4,6,{8}2<7[8:1]*>5[8:1],,2,,26,37,48,,1-4[8:1],4V25[4:1],1,5,6-3[8:1],6,6/8<5[8:1]*>3[8:1],,8w4[8:1],,8,,26,26,
1-4[8:1],1,7p5[4:1],7,2,2,1,1,7<4[8:1],2-6[8:1],7,2,,
7-3[8:1],3V51[4:1],7,2,2,2>5[8:1],2,1<6[8:1],1,4,3,12,34,56,78,1<4[2:1]/2<4[2:1],
