&title=INNOSENSE
&artist=FLOW /《情热传说 the X》ED2
&first=-0.001
&des=导师
&wholebpm=138.000
&lv_5=13+
&des_5=日色
&inote_5=(138)
{4},,,
{8}1h[8:1]/3h[8:1],,6h[8:1]/8h[8:1],,45,4h[8:1]/5h[8:1],,17,
3h[1:1]/Cf,,,,,,,,
8h[8:7],,,,,,,{16}5,8,
{8}5h[1:1],,,,,,,,
6h[2:1],,,,3h[4:1],,4,,
{16}3/4,,2,4,2,,3,5,3,,2,4,2,4,3,5,
4,,3,4,2,,5,4,6,,2,4,3,5,4,6,
5,,7,5,7,,6,4,6,,7,5,7,5,6,4,
5,,6,5,7,,4,5,3,,7,5,6,4,5,3,
{16}4x-7[8:1]/2hx[4:1],,,,,,,,5-1[8:1]/6h[4:1],,,,,,,,
24,,6,5,6,,3,4,2-5[8:1],,1,,8,,,,
6-3[8:1]/4h[4:1],,,,,,,,2-6[8:1]/5h[4:1],,,,,,,,
47,,2,1,2,,7,8,6<1[8:1],,5,,4,,,,
4h[4:1]/3>8[8:1],,,,,,,,5h[4:1]/7-3[8:1],,,,,,,,
24,,6,5,6,,1,8,2<7[8:1],,3,,4,,,,
6h[4:1]/5>2[8:1],,,,,,,,8h[4:1]/7-3[8:1],,,,,,,,
24,,1,8,1,,6,5,7,,2,1,3,,5,4,
3/6-4[8:1],,,,8-3[8:1]/6,,,,8/4-7[8:1],,,,2-5[8:1]/4,,,,
12,,7,,67,,3,,43,,6,,56,,2,,
1/2-4[8:1],,,,6-1[8:1]/2,,,,5-2[8:1]/6,,,,57,,6,,
24,,3,,28,,37,,4,6,5,7,3,5,4,6,
2/Cf,,,,,,,,,,,,,,,,
B7,,,,,,,,B1,,,,,,,,
{32}3hx[1:1]/B7,B6,{16}B5,,,,,,,B8,,,,,,,,
{32}B2,B3,{16}B4,,,,,,,B1,,,,,,,,
{32}7xpp4[1:1],B6,{16}B5,,,,,{32}E5,E4,{16}E3,,,,,,,,,
B2,,,,,,,,B6,,,,,,,,
Ch[4:3],,,,,,,,,,,,,,1/8,,
,,2/6,,4-1[12:1]/8-5[12:1],,,,,,,,,,,,
{32}1b-5[8:1]/5b,26,37,48,{16},,12,,,,3-7[8:1],4,2,4,3,,5,,
{32}8b-4b[8:1]/4b,15,26,37,{16},,81,,,,2-6[8:1],4,3,1,2,,8,,
7-4[8:1]/5,,,,7/8,,,,3,5,4,6,5<3[4:1],,,,
8b-4b[8:1],,,,8b,,,,3,5,4,6,8,7,2,5,
4b-7[8:1],,,,4/6-3[8:1],,,,1/6,2h[16:3],,,1-5[8:1],,,,
1/8>3[8:1],,,,4/8,,,,6,57,,,1/2V86[4:1],,,,
6V42[4:1],,,,2V86[4:1],,,,6,,,,1<6[12:1],,28,,
,,3,7,4,6,5h[4:1],,,,4,,12,,37,,
{32}8b-4[8:1]/4b,73,62,51,{16},,87,,,,6-2[8:1],5,7,5,6,,4,,
{32}1b-5b[8:1]/5b,84,73,62,{16},,18,,,,7-3[8:1],5,6,8,7,,1,,
2<6[8:1]/4,,,,2/6,,,,8,4,7,3,6>7[4:1],,,,
2b-6b[8:1],,,,2b,,,,7,8,6,1,4,3,5,4,
6b-3[8:1],,,,6/2-6[8:1],,,,1/2,8h[16:3],,,1-5[8:1],,,,
1/2<7[8:1],,,,6-1[8:1]/2,,,,56,4h[16:3],,,5-1[8:1],,,,
5/7<4[8:1],,,,7/2-5[8:1],,,,1/2,8h[16:3],,,1<6[8:1],,,,
1>4[8:1],,,,1,,,,6,3,4,3,7,2,3,2,
8>4[4:1],,,,4<8[16:3],,,,1w5[8:1],1,,,1,,,,
2-6[8:1]/8-4[8:1],,,,28,,,,3,5,4,6,2,5,4,7,
1/Cf,,,,,,7,8,1/6-2[8:1],,,,36,,,,
48,,,56,,,32,,87,,6,5,6-2b[12:1],,,,
1b,,,,34,,,,67,,18,,23,,4-1[12:1]/5-8[12:1],,
