&title=Retribution
&artist=nm-y & Kry.exe
&first=0.04
&des=chara=)
&clock_count=4
&lv_5=14+
&inote_5=(190)
{1},,
{16},
{8},,,1-7-3-5[8:12],
{1},
{8},,,,,,,7-1-6-2-4[8:7],
{1},
{8},,,,,,,2-6-1-4[8:12],
{1},
{8},,,,,,,6v3<5q1[8:12],,,,,,,,,,,,,,,,
{8}3h[8:16],,,,,,,,E1,,E8,,E7,,E6,,
{8}6h[8:16],,,,,,,,E5,,E4,,E3,,E2,,
{8}1-4[8:14],,,,,,,,E8,,B7,,B6,,E6,,
{8}5-8[8:13],,,,,,,,E4,,B3,,B2,,E2,,
{8}2hb[8:2]x/6hb[8:2]x,,,4bxqq2>3qq1[8:10]/7hb[8:2]x,,,,,8h[8:2],,,7,,,6h[8:1],,
{8}2h[8:3],,,5pp8[8:10],,,,,3h[8:3],,,,2h[8:1],,1,,
{8}3hb[8:2]x/7hb[8:2]x,,,5bxq8[16:19]/2hb[8:2]x,,,,,1,,2,,A3,,A4,,
{8}8h[8:2]/4h[8:2],,,7h[8:2]/3h[8:2],,,26,,1p3[16:9]/5p7[16:9],,,,,,,,
{8}6hb[8:2]x/7hb[8:2]x,,,2hb[8:2]x/8hb[8:2]x,,,3hb[8:2]x/4bx,,6,4-2[8:1],6h,4,6,2,6h,
{16}A3,D4,
{8}6,1,6,2,7h,3,7,4,83,7,62,3,47,6,51,
{16}A2,D3,
{8}3hb[8:2]x/5b,5,5,1b/8hb[8:2]x,1,1,5bx/6bx,
{16}A4,D4,
{8}3h[8:1]x,7,3h[8:1],6,3h[8:1],8-6[8:1]b,2h[8:1],8b,1,2,37,
{16}6,4,5,3,6,2,7,1,8-6-4[8:3]b,,,,,,,,,2xw6[8:1],,
{16},,,,,,,8b-3[8:1],,3,3,8b-5[8:1],,5,5,8b-4[8:1],,3,3,8b-6[8:1],,5,5,8b-3[8:1],,3,3,8b-5[8:1],,5,5,8b,,,,3b/7b,,2b/6b,,1b-3[8:1]/5b,,4,4,1b-6[8:1],,6,6,1b-4[8:1],,4,4,1b,,,,7-1-3[8:2],,1-3-5[8:3]b,,3-5[16:4],,,,5xw1[16:3]b,
{16},,,,,,,2bx-4[8:1],,8,8,2b-8[8:1],,7,7,2b-4[8:1],,6,6,2b-8[8:1],,5,5,2b-4[8:1],,6,6,2b-8[8:1],,5,5,2b,,,,6b/2b,,7b/3b,,8b-6[8:1]/4b,,5,5,8b-3[8:1],,3,3,8b-5[8:1],,5,5,8b,,,,3<5[8:1]b,,6<8[16:1],,,,,,1bx,2bx,1bx,,3xb/8xb,,4xb/7xb,
{16},
{32}6xb,D6,A5,,
{16}3,4,1hb[8:1],,6,5,8hb[8:1],,3,5,1hb[8:1],,6,4,8hb[8:1],,3,5,4hb[8:1],,6,4,5hb[8:1],,3,6,2,7,1,8,2hb[8:1],,6,5,4b/7b,,3,4,2b/5b,,6,4,5b,,,,
{16}7-2-5[8:1]b,,2-5-8-3<4[8:2],,,,,,4xw8[8:1]b,
{16},,,,,,,1hxb[16:3],,7,7,1hb[16:3],,6,6,1hb[16:3],,8,8,1b-5[8:1],,6,6,1b>4[8:1],,7,7,1b-5[8:1],,5,5,1b,,,,4b/6b,,3b/5b,,2b/4hb[16:2],,2,,1hb[8:1]/7b,,7,,5b/6hb[8:1],,5,,3b/4b,,3b/4b,,3/4x,,2x/5,,16,,7,1,8,,6,8,7b/C/B2/B3f/B4/E3/E4,,,,
{16}2h[8:1],,
{32}7,E7,E6,A5,
{16}3h[8:1],,
{32}7,E8,E1,A1,
{16}2h[8:1],,
{32}7,E7,E6,A5,
{16}3h[8:1],,
{32}7,E8,E1,A1,
{16}2h[8:1],,
{32}7,E7,E6,A5,
{16}3h[8:1],,
{32}7,E8,E1,A1,
{16}4xw8[8:1],,4x,,,,,,
{16}7h[8:1],,
{32}2,E3,E4,A4,
{16}6h[8:1],,
{32}2,E2,E1,A8,
{16}7h[8:1],,
{32}2,E3,E4,A4,
{16}6h[8:1],,
{32}2,E2,E1,A8,
{16}6bs2[16:7],,,,,,,,2xw6[16:2]b,,,,,,,,
{16}6x/5bx,,,,3b/7,3b/7,3b/7,3b/7,3b/7,,,4b/8,,,3b/7,,2b/6,,,1b/5,,,1b>2[16:1]*>3[16:2]*>4[16:3]*>5[16:4]/5<6[16:1]*<7[16:2]*<8[16:3]*<1[16:4],,,,,,,,,,
{16}4bx/8x,,,,2b/6,2b/6,2b/6,2b/6,2b/6,,,3b/7,,,4b/6,,2b/8,,,3b-5[8:1]b/5,,,1b/7-1s5[8:2],,,,,,3x,3x,3x,3x,
{8}4x-8[16:1],4,3-7[16:1],3,2-6[16:1],2,1-5[16:1],1,8-4[16:1],8,7-3[16:1],7,6-2[16:1],6,3,3,
{16}2x,3,47,,
{8}6,3/5-2b[8:1],4,5b-8[8:1]/7,6,3/5b,2b-6[8:1],,2b,,
{16}5xb,6xb,5xb,,7xb,3xb,8xb,
{32}A8,D8,A7,D7,A6/3,,,,
{16}4,2hx[8:1],,6,5,7hx[8:1],,3,5,1hx[8:1],,6,4,8hx[8:1],,2h[16:1],6h[16:1],2hx[16:1],,7h[16:1],1h[16:1],7hx[16:1],,3h[16:1],5h[16:1],3hx[16:1],,4h[16:1],5h[16:1],2h[16:1],7h[16:1],3h[16:1],6h[16:1],1h[16:1],8h[16:1],2,1,2,1,2,1,2,1,2,1,
{32}2b,3,4,5,6,7,8,1,2x/6b,5,4,3,2,1,8,7,
{16}4x,5,2,7,3,6,2,7,1b-6<1s5>2q5[8:29]*-4>1z5<8p5[8:29],,
{8},,,,,,,,,,,,,,,,,,,,,,,,,,,,,,,
{8}2p6p2>2>5s1[8:28],,,,,,,,,,,,,,,,5s1[8:12]b,
{8},,,,,,,,,,,,,,,5-1[8:10],,5,,5,,5,,6,,6,,6,,7,7,7-1<8-5[8:8]/3,,3,,3,,3,,2,,2,,2,,2,,1pp4[8:10]*pp4[8:10]/7,,7,,7,,7,,6,,6,,6,,6,,
{8}45,45,36,36,
{16}2,7,1,8,4,5,3,6h[8:2],,,,2-6[8:1],,,,8-5[8:1]*z4[8:1],,,,,,,,,
{8}3b/7b-5[8:1],4,3/7,2h[8:1],7-5[8:1],1,2/7,3,4/7-5[8:1],3h[8:1],7,2h[8:1],7-5[8:1],1,2/7,3,4/8-6[8:1],3h[8:1],8,2h[8:1],8-6[8:1],1,2h[8:1]/8,,3/8-6[8:1],4h[8:1],8,3,
{6}2h[12:1]/6h[12:1]x,1h[12:1]/5h[12:1],2h[12:1]/6h[12:1],
{8}3x/7,3/7x,,2-4[8:1]/6,5,6h[8:1]/2,,7h[8:1]/2-4[8:1],,8h[8:1]/2,,7h[8:2]/2-4[8:1],,2,6,,1-3[8:1]/5,6h[8:1],1,7h[8:1],1-3[8:1],8,7/1,6,5h[16:2]/1-3[8:1],,1,6h[8:2],,
{16}4,5,3,6,2,7,
{4}1x>6[16:3],1b/7b,1<4[16:3],1b/3b,
{4}1>6[16:3],1b/7b,1w5[8:1],1b,
{4}8<3[16:3],8b/2b,8>5[16:3],8b/6b,
{4}8<3[16:3],8b/2b,8w4[8:1],8b,
{4}5x/1x>6[16:3],C8f/B7/1b,1<4[16:3],C8f/B3/1b,
{4}1>6[16:3],C8f/B7/1b,1<4[16:3],C8f/B3/1b,
{48}8w4[8:1],,,,,,,,,,,,8b,C8f,,,,,,,,,,,{48}1w5[8:1],,,,,,,,,,,,1b,C1f,,,,,,,,,,,
{48}8w4[8:1],,,,,,,,,,,,8b,C8f,,,,,,,,,,,{48}1w5[8:1],,,,,,,,,,,,1b,C1f,,,,,,,,,,,
{8}3h[8:1]x/6h[8:1]x,,,1/5,15,,,
{16}37,37,37,,
{8},,26,26,,,
{8}45,
{12}75,,75,,75,,24,,24,,24,,
{8}18,36,27,45,
{16}3,6,2,7,1,8,1,8,
{32}1x,8x,1x,8x,1x,8x,1x,8x,1x,8x,1x,8x,1x,8x,1x,8x,1x,8x,1x,8x,1x,8x,1xs5>1[8:13]*s5>1[8:13],8xz4<8[8:13],
{16},,,,,,,,,,,,,,,,,,,,,,,,,,,,,,,,,,,,1,1,1,1,1,1,1,1,1,
{32}8,7,6,
{16}1,1,1,
{32}2,3,4,5,
{24}1,1,1,2,8,2,8,3,7,3,7,4,6,4,6,5,5,5,5,3,4,3,
{32}7,6,5,,
{24}3,4,3,
{32}8,7,6,,
{24}4,5,4,
{32}1,8,7,,,
{24}6,5,6,1,1,1,
{32}2,3,4,
{24}8,8,8,
{32}1,2,3,
{24}7,7,7,7,7,7,7,7,7,
{32}8,1,2,
{24}3x,6,3,6,4x,5,4,5,
{32},,
{16}2b/6,3,4/8b,7,6/1b,2,3/7b,6,5/2b,3,4/8b,7,6/1b,2,3/7b,6,5/2b,3,4/8b,7,6/1b,2,3/7b,6,5/2b,3,4/8b,7,6/1b,2,3/7b,6,5,
{24}1,1,1,
{32}2,3,4,
{24}1,1,1,
{32}8,7,6,
{24}1,1,
{32}2,3,4,
{24}1,1,1,1,1,1,1,
{48}1b,2b,3b,4b,1bx,2bx,3bx,4bx,5bx,6bx,7bx,8bx,4bx,3bx,2bx,1bx,8bx,7bx,6bx,5bx,8bx,7bx,6bx,5bx,
{72}1bx,D2f,2bx,D3f,3bx,D4f,4bx,D5f,5bx,D6f,6bx,D7f,7bx,D8f,8bx,D1f,1bx,D2f,2bx,D3f,3bx,D4f,4bx,D5f,5bx,D6f,6bx,D7f,7bx,D8f,8bx,D1f,1bx,D2f,2bx,D3f,3bx,D4f,4bx,D5f,5bx,D6f,6bx,D7f,7bx,D8f,8bx,D1f,1bx>4q2<8v3>1[8:29]b/5bx<8q6>4v7<5[8:29]b,
