&title=Hero
&artist=Kanallia x Lilygarden
&first=-0.3
&des=Flashblue De'Owl // 做自己的英雄
&lv_5=14
&inote_5=(180)
{4},,,,
{4}1-5-3[4:1]*-5-7[4:1],,,2/8,
{32}1bx,2,3,4,5,6,7,8,1,2,3,4,5,6,7,8,1x,2,3,4,5,6,7,8,1,2,3,4,5,6,7,8,1bx,2,3,4,5,6,7,8,1,2,3,4,5,6,7,8,1x,2,3,4,5,6,7,8,1,2,3,4,5,6,7,8,1bx,2,3,4,5,6,7,8,1,2,3,4,5,6,7,8,1x,2,3,4,5,6,7,8,1,2,3,4,5,6,7,8,1bx,2,3,4,5,6,7,8,1,2,3,4,5,6,7,8,1x,2,3,4,5,6,7,8,1h[8:1],,,,,,,,
{8}6x-1[8:1],,5,4,3-8[8:1],,4,,6-1[8:1],,5,4,3h[8:1],,4h[8:1]/2h[8:1],,
{8}5/3,3,4,6/4,6,5,5/2,2,3,7/4,7,6,5/3,6h[8:1]/2h[8:1],,,
{8}3<6[8:3],,,,E5,,,C,,,3h[8:3],,{16}E1,E2,E3,E4,E5,E6,E7,E8,
{8}E1f,,3,3,4>3pp6>5[1:1],,2,2h[8:7],{1},
{8}3h[4:1],,5,6h[4:1],,5,4h[8:6],,,A7,,E6,,C,A2,,
{8}6xh[8:3],,5,5,7>3v5[4:3],,4,4h[8:3],,,,,3x,,2,,
{8}1<5[8:3],1,,5V31[8:3],,,8,8h[4:3],,E7/B6/E6/A6,,E2/B2/E3/A2,,4,2/6,,
{8}3bh[4:1]/7b,,1,2h[8:3]/8,,,8,1h[4:1]/7,,7,7,8,6,5,4/7,,
{8}3<6[4:1],,7,7p3[4:1],,,1,1h[4:3],,E3/B3/E4/A3,,E8/B7/E7/A7,,5,7/3,,
{8}6h[4:1]/2,,8,7h[8:3]/1,,,1,8h[4:1]/2,,2,2,1,3,3,4,2,
{8}5pp4[2:1],,3,3qq4[2:1],,,,,,5,6,7,8/1,2,3,,
{16}4/7,,6,5,6,,3/7,,6,5,6,,3h[4:5]/8<5p4>1[8:6],,,,
{1},7>3v5[2:1],{4}4-8b[8:1],,{8}7,6,4,3,
{16}5/2,,3,4,3,,6/2,,3,4,3,,6h[4:5]/1V35v4V68b[8:6],,,,
{1},1w5[8:3],{8}3h[8:1],5h[8:1],3h[8:1],5h[8:1],{16}2,6,2,6,1,7,1,7,
{8}8h[2:1],,7,7,6h[2:1],,5,5,4h[2:1],,3,3,2h[2:1],,1,1,
{8}8h[2:1],,7,6,5h[2:1],,4,3,2h[2:1],,1,8,7h[4:1],,5,,
{8}2/6,2,3/5,3,4/6,6,3/7,7,2/8,3,4/5,6,1/7,6,4/5,3,
{8}2/4,2/4,3/5,3/5,{16}6,4,6,4,7,5,7,5,8-4[8:1],,,6,,,2q6b[8:1],,,,6,,8b,,,,
{8}1xh[4:1],3,5,7V15[16:3],1-3[16:1],,,,
{8}2xh[4:1],4,6,8V26[16:3],2-4[16:1],,,,
{8}3xh[4:1],5,7,1V37[16:3],3-5[16:1],,,,
{16}8,,,1v4[16:1]/7v4[16:1],,,1/7,,,,3/5,,2/6,,,,
{8}8xh[4:1],6,4,2V86b[16:3],8-4b[32:3],,,,
{8}7xh[4:1],5,3,1V75b[16:3],7-3b[32:3],,,,
{8}6xh[4:1],4,2,8V64b[16:3],6-2b[32:3],,,,
{16}3xV51[4:1],,5,5,3,,6,,,,2/8,,7/3,,,,
{16}8xV62[4:1],,2h[16:1],,8,,3qq6b[4:1],,3,,,,,,,,
{16}7xV51[4:1],,1h[16:1],,7,,2qq5b[4:1],,2,,,,,,,,
{16}6xV48[4:1],,8h[16:1],,6,,1qq4b[4:1],,1,,,,,,,,
{16}5xh[8:1],,,4h[8:1]/6h[8:1],,,3h[8:1]/7h[8:1],,,,8h[4:1],,5,4,3,2,
{16}1xV37[4:1],,7h[16:1],,1,,6pp3b[4:1],,6-4[8:1],,,,,,,,
{16}2xV48[4:1],,8h[16:1],,2,,7pp4b[4:1],,7-5[8:1],,,,,,,,
{8}3x<6[8:1],3,7p3[8:1],7,1q5[8:1]*>4[8:1],,1,,
{16}6xh[8:1],,,7h[8:1],,,8,,,,1h[4:1],,2,3,4,5,
{1}6b,{4},,{16},,7x,,E7,B6,B5,E5,{4}3,3,4,4,5,5,{16}6,,7x,,E7,B6,B5,E5,
{4}3,3,4,4,5,5,{16}6,,7x,,E7,B6,B5,E5,
{8}3,3,4,4,5,5,6,6,{16}7,8,7,8,6z2b[4:1],1,6,1,{8},,,,
{16}3b/7b,,,5h[8:1]/6h[8:1],,,1h[8:1]/2h[8:1],,,3/7,,,{32}7/3,4,5,,,,7/3,4,5,,,,8/3,4,5,,,,{16}8-4[8:1],,,5,,,3,,,1,,
{16}2b/6b,,,4h[8:1]/3h[8:1],,,8h[8:1]/7h[8:1],,,6/2,,,{32}2/6,5,4,,,,2/6,5,4,,,,1/6,5,4,,,,{16}1h[16:3],,,{32}5w1[8:1],2/6,3/7,4/8,,,,,{8}5x,,
{16}3b/7b,,,,2/6,,3,4,,5,4,,3<6b[8:1],,2/4,,
{16}3,,,,3/7,,6,5,,4,5,,6,5,6,4,
{16}5b,,3x,3,4,,5,4,,3,4,,5h[4:1],,{32}E4,E3,E2,E1,E8,,,,
{16}6x,,5/6,,4/7,,3,4,3,,2/5,,,,
{32}3b/7b,,,,,,7,6,5h[8:1],,,,1,2,3h[8:1],,,,8,,,,,,7/3,4,5,,,,7/3,4,5,,,,8/3,4,5,,,,{16}8h[16:9],,,2,,,6,,,4,,
{32}6b/2b,,,,,,2,3,4h[8:1],,,,8,7,6h[8:1],,,,1,,,,,,2/6,5,4,,,,2/6,5,4,,,,1/6,5,4,,,,{16}1h[16:3],,,{32}5w1[8:1],2/6,3/7,4/8,,,,,{8}5x,,
{16}3b/7b,,,,6h[8:1],,8,7h[8:1],,1,8h[8:1],,2,1,2,,
{16}3/8,,,,3h[8:1],,1,2h[8:1],,8,1h[8:1],,7,8h[8:1],7,6,
{8}5b,,3x-5[8:1],3,7x-3[8:1],7,1x-5[8:1],1x,5,6,7xh[8:1],,{32}7x,6,5,4,3,2,1,8,7w3[8:1],,,,,,,,
{1}A7f/E7/B7/E8,,{1}2<3[2:3],Ch[4:3],
{16}E1,E2,E3,E4,E5,,E1,E2,E3,E4,E5,,D1,D2,D3,D4,D5,,D1,D2,D3,D4,D5,,E1,B1,B2,E3,E7,B6,B5,E5,
{16}2x,1x,2,1,3,8,3,8,4,7,4,7,5,6,5,6,4,3,2,1,4,5,6,7,4w8[8:1],,,,,,,,
{16}1bx,8x,2,4,3,5,1b,8,3,5,4,6,2b,1,4,6,5,7,2b,1,3,8,4,7,5b,4,3,2,6b,7,8,1,
{16}3b,4,2,5,1,8,4b,5,3,6,1,8,5b,6,4,7,2,1,3b,8,4,7,5,6,4b,3,2,1,5b,6,7,8,
{16}3b,4,3,6,5,6,3b,4,2,6,5,7,2b,1,3,7,8,6,2b,1,2,7,8,7,1b,2,3,4,8b,7,6,5,
{16}2b,4,2,7,5,7,2b,4,3,7,5,6,1b,3,2,8,6,7,3b,1,3,6,8,6,
{32}2x,3,4,5,6,7,8,1,2x,3,4,5,6,7,8,1,
{40}2bxh[8:7]/B8f,C,B4,A4,,,,,,,{8},,,,,,,,3/4,,5/2,,,,{40}1bx>8[8:5]/8bx<1[8:5],D2/A2/D7/D8,D3/A3/A6/A7,D6/D4/A5/A4,D5f,,,,,,{8},,,,,,,6,5,,7/4,,,,
{8}3,,4-8[8:1],,5,,6,5,7,7V15[8:3],,2-4[8:1],,,,,
{8}6,5,7p3[8:1],,2>5[8:1],,5qq1[2:1],,{32}6,,,,,,7,,,,,,,8,,,,,,,,7>6[32:51],,,,6>7b[32:47],,,,,,,
{4},,,,,,,{32},E6,,B5,,B4,,E4,
{4},
E
