&title=Anhedonia
&artist=a_hisa
&first=0
&des=もふもふウサギ
&lv_5=13
&inote_1=
&inote_2=
&inote_3=
&inote_4=
&inote_5=(180){1},
4h[128:1],3h[128:1],2h[128:1],1h[128:1],
{2}
8-4[4:1],1h[2:1],3-7[4:1],1h[2:1],
6qq1[4:3],,{8}2h[8:3],,,4h[8:3],,,5h[4:1],,
{6}7h[3:1],,5,57,4,3,24,5,6,{4}7h[4:1]/8,3>6[2:1],
5h[4:3],,,6<4[4:3],5,6,7,8,
{2}
1-5[4:1],8h[2:1],6-2[4:1],8h[2:1],
{4}3pp8[4:3],,,{8}7,6,{2}5-1[4:1],3h[2:1],
{4}7<2[4:3],,,{8}2q8[2:1],,{4}1h[2:1],,,{16}1,28,37,46,
{1}5b-1[2:1],{8},,{16}2,1,{8}2,3,45,36,27,
18,{16}7,8,6,1,5,2,{4}3/4-8[8:1],1-5[8:1]/4,
7-4[8:1],7/2-4[8:1]*-8[8:1],2-6[8:1],26,
{16}3,4,,6,5,,2,4,,7,5,,{8}18,18,
{16}36,2,1,8,5,6,7,8,2,3,4,5,6,7,8,1,
2h[8:1]/6h[8:1],,,3h[8:1]/7h[8:1],,,{8}4-1[8:1]/8-5[8:1],48,
,,{16}2,1,3,8,4,7,{4}65,
{16}7h[8:1]/4h[8:1],,,5h[8:1]/2h[8:1],,,18,,
72,6,5,4,3,2,1,8,74,5,6,7,8,1,2,3,
{8}8-4[8:1]/4,,8,3,{16}2h[8:1]/5h[8:1],,,4h[8:1]/7h[8:1],,,81,,
7-4[8:1],,,8,7,,3,,
2-5[8:1],,,1,2,,6,,
8-4[8:1],,,1,8,,2,,
2,1,8,7,6,5,4,3,
{4}1-5[8:1]/2-6[8:1],12,
{16}7V53[16:3],,,3-7[8:1],,,2,,
{4}2-5[8:1],2/8-2[8:1]*-6[8:1],8-4[8:1],84,
{16}
5v8[16:3],,,8^5[8:1],,,3,,
4v1[16:3],,,1^4[8:1],,,6,,
6,7,8,1,2,3,4,5,16,8,7,6,5,4,3,2,
18,,6,5,6,,18,,3,4,2,5,1,6,8,7,
2,1,3,8,4,7,5,6,4,3,2,1,78,6,5,4,
{2}2b/3b<2[4:7],1,2,3,
4w8[2:1],,6w2[2:1],,
{2}7h[2:1]/6>7[4:7],,7,6,
5w1[2:1],,3w7[2:1],,
1pp5[4:3],,6h[2:1],8h[2:1],
2h[2:1],3h[2:1],5h[2:1],3h[2:1],
8>8[4:7],,,,
{8}2,1,2,38,,47,,6/5-1[4:1],
{2},
{24}28,37,46,{8}5,3b/7b,,
{16}
7,8,7,8,7,,16,,3,4,3,,5,4,5,,
2,1,2,1,2,,38,,6,5,6,,4,5,4,,
7,6,5,8,7,6,1,8,
27,3,4,5,8,7,6,5,
2,3,4,1,2,3,8,1,
2h[8:1]/6h[8:1],,,3h[8:1]/7h[8:1],,,48,,
6,5,7,5,6,,47,,2,1,2,,8,1,8,,
3,4,2,4,3,,5,4,5,,27,,1,8,1,8,
2,3,4,5,8,7,6,5,1,2,3,4,7,6,5,4,
2,3,4,5,6,7,8,1,{4}2-5[8:1]/6-1[8:1],26,
{8}
8-4[8:1],4V68[8:1],8,3,{16}1,2,3,4,{8}5-1[8:1]/6,,
5/8-4[8:1],,8,2^5[8:1],,2,6h[4:1],,
1-5[8:1],5V31[8:1],1,6,{16}8,7,6,5,{8}4-8[8:1]/3,,
4/1-5[8:1],,1,7^4[8:1],,7,{16}3,2,{8}1h[8:1],
7-3[8:1],3V58[8:1],7,1,{16}1,2,3,4,{4}5/7-4[8:1],
1-7[8:1]*-3[8:1]/7,1-5[8:1],15,4-1[8:1]/8-5[8:1],
48,{24}26,37,48,{4}1-6[8:1]/5-2[8:1],1pp5[8:5]/5,{8}1,
6,6,6,6,6,6,{32}6,5,4,3,2,1,8,7,
{16}
2b,3,4,5,8,7,6,5,
1b,2,3,4,1,8,7,6,
2b,3,4,5,6,7,8,1,
2/5b,4,3,2,1,8,7,6,
1b,6,1,6,8,7,8b,1,
2,3,4,5,8b,7,6,5,
2b,5,2,5,4b,7,4,7,
1b,2,3,4,6b,7,8,1,
4b,3,2,1,5,6,7,8,
3b,2,1,8,6,7,8,1,
4b,3,2,1,8/7,6,5,4,
1b,2,3,4,6/5,7,8,1,
4b,5,4,5,3,6,3,6,
2,7,2,7,1,8,1,8,
{16}
1,2,3,4,7,6,5,4,
{24}8,1,2,3,4,5,1,8,7,6,5,4,
{1}
3b>6[2:3],,
6<3[2:3],,
7h[4:7],2h[4:3],5w1[2:1],
{2}3/4-8[8:1],
{24}71,62,53,{8}4,6b/2b,,
{16}
2,1,2,8,3,,12,,6,4,6,,3,5,3,,
7,8,7,1,6,,78,,3,5,3,,6,4,6,,
2,3,4,1,2,3,8,1,
72,6,5,4,1,2,3,4,
6,7,8,5,6,7,4,5,
2h[8:1]/6h[8:1],,,3h[8:1]/7h[8:1],,,48,,
3,4,3,5,2,,34,,7,1,7,,2,8,2,,
6,5,6,4,7,,3,5,3,,72,,8,1,8,1,
{16}
8,7,6,5,2,3,4,5,7,6,5,4,1,2,3,4,
{24}
7,6,5,8,7,6,2,3,4,1,2,3,
{32}
8,7,6,5,4,3,2,1,8,7,6,5,4,3,2,1,
{1}
4b/8bqq5[2:3],,5qq2[2:3],,
2h[2:1]/4h[1:1],{8}8h[8:3],,,7h[8:3],,,6h[8:17],,
{1}5h[8:15],,{4},,{1}1b,,
