&title=Eve Avenir
&artist=BlackY feat. Risa Yuzuki
&first=0.1
&des=yuUuKa
&des_5=yuUuKa
&lv_5=13+
&inote_5=(150){4},,,,3,
3,{16}6,5,{8}7,{4}4bh[8:1],
7/2h[8:1],{16}6,5,7,4,{8}6,{16}2>4[8:1],1,,1,{8}2,
{16}7,6,5,1,2,3,7,6,5,3,4,2,6,5,7,3,
{4}4bh[4:1],{16}3,4,2,5,{8}3,{16}7<5[8:1],8,,8,{8}7,
{16}3,4,2,6,5,7,4,3,2,6,7,8,1-5[8:1],2,{8}3,
{4}1,{16}3,4,2,5,{8}3,{16}8,1h[8:1],,7,{8}8h[8:1],
5,{16}3,4,2,6,5,7,3,4,1,6,5,8,,,2,
1,{8}4h[8:1],{16}7,8,{8}5h[8:1],{16}4b,5,4,5,2b,5,4,7b,
4,5b,2,1,3,7,8,6,1b,2,3,4bxh[16:5],{32}7b,8x,1x,2x,{16}3x,{32}5x,6x,
,,,,{8}3,2>4[8:1],1,{16}8h[8:1],,,5,,,{8}2h[8:1],
{16}5,,,4,,,{8}6,3-1[8:1],4-6[8:1],3,4,
,6/1,7<5[8:1],8,{16}1h[8:1],,,4,,,{8}4,
6bpp1[8:5],,,1,{4}2-5[8:1],2b,
{16}6-8[8:1],,,5,{8}6,2h[8:1],{16}4,,,7/8,,,{8}5/6,
{16}3-1[8:1],,,4,{8}3,7-1[8:1],4,7-5[8:1],3,7,
{4}3h[4:1],{8}5,{16}3,4,{4}2-6-2b[4:1],2,
{8},5,{16}6,5,{8}7h[2:1],4,B3,B2,B1,
,3,4>2[8:1],5,{16}6h[8:1],,,5,,,{8}6,
,2-5[8:1],7,2,{16}7h[8:1],,,5h[16:3],,,{8}7,
,6,5<7[8:1],4,{16}3h[8:1],,,4,,,{8}3,
{4}2>4[8:1],2/1p5[8:1],1/8q4[8:1],8/7h[4:1],
{8},2,6-3[8:1],1,{16}6,,,1h[16:3],,,{8}7,
,1,8w4[8:1],7,{16}8,{32},,,,8x,7x,6x,5x,,,{8}1h[8:3],
5,,,B7/B8/E8/E7/B6,{16}B4/E4/B3/B2/E3,,,B5/B4/E5/B6/E6,,,{8}Cf/B7/B6/B2/B3,
,,,,{2}5h[4:1],
{6}4xh[12:1],B6/E6,B3/E4,1xh[12:1],E8/B7,E2/B2,
6xh[12:1],B2/E3,B4/B5,3xh[12:1],B7/E7,B5/B4,
6h[3:1],B3/B4,B1/E2,4h[3:1],B7/B6,B1/E1,
5xh[12:1],B3/E4,B6/E6,8xh[12:1],E2/B2,E8/B7,
4h[6:1],{12}6,5,{6}7h[6:1],3h[6:1],{12}5,4,{6}6h[6:1],
2h[6:1],{12}4,3,{6}5h[6:1],1h[6:1],{12}3,2,{6}4h[6:1],
{16}5bx,4,5bx,4,5bx,4,{8}5bx,{48}6b,7x,8x,1x,2x,3x,,,,,,,5b,6x,7x,8x,1x,2x,,,,,,,{16}2,
4,,3,{8}5,{16}4,6,,4,4,5,{8}5,2b/7b,
{16},1h[16:1],{8}7h[16:1],{16}3h[16:1],5,,,7/8,,,8/1,,,{8}2/1,
{4}3-5[8:1]/6-8[8:1],6/3-1[8:1],{8}3/8-4[8:1],7,8/1>3[8:1],2,
1-4[8:1],6h[8:1],1-5[8:1],7h[8:1],{4}1,{8}4/3,2/5,
{16}7,8,6,2,1,3,6,5,{8}8-5[8:1],4v1[8:1],8,4,
{16},,,,5,5,{8}3,{16}6,6,{8}4,6-3[8:1]/2-7[8:1],1/5,
{4}2-5[8:1]/6-1[8:1],2/6,B6/B3/Cf,6h[8:1]/3p6[8:1],
3/7>2[8:1],7/4q5[8:1],4,{8}2-6[8:1]/1-5[8:1],3/8,
{4}1/2,{16}2,4,,3,{8}5,{16}6,5,7,3,4,2,
{32}8x,7x,6x,5x,,,,,1x/5x,2x/6x,3x/7x,4x/8x,,,,,B4,B3,B2,B1,,,,,B5,B6,B7,B8,,,,,{4}6-4[8:1]/3>1[8:1],
3/6-8[8:1],{8}6/1-5[8:1],2,1/8<6[8:1],7,
8-5[8:1],3h[8:1],8-4[8:1],2h[8:1],{4}8,{8}5/6,7/4,
{16}2,1,3,7,8,6,3,4,{8}2/1,5/3,8/1,5h[4:1]/6h[8:5],
,,{4}5,{16}5h[16:3],,,4h[16:3],,,{8}3,
{4}3b-1[8:1]*-8[8:1],3,{16}7,5,,6,{8}4,{16}3,5,
{8}2/1,2/1,1-5[8:1]/2-6[8:1],8/3,{4}1/2,{16}1,2,8,7,
2,3,7,6,3,4,6,5,{8}1-5[8:1],8-4[8:1],1,8,
{24},,,,{6}B3/E4,B6/E6,8xh[12:1],E2/B2,E8/B7,
3xh[12:1],B7/E7,B5/B4,6xh[12:1],B2/E3,B4/B5,
3xh[12:1],B7/E7,B5/B4,6xh[12:1],B2/E3,B4/B5,
3h[3:1],B6/B5,B8/E8,5h[3:1],{3}B2/B3,
{16}2/1,1/2,,7/8,{8}7/8,3h[8:1],{16}6,5,7,2,1,3,7,8,
6,6,,4,{8}4,{16}7,2,8,1,7,2,6,3,{24}5,4,5,
{16}Ch[16:3],,,B7/B6/B2/B3,,,,,1,2,3,4,7,6,5,4,
1,1,2,2,3,3,4,4,5,5,6,6,7,7,8,8,
{4}1bh[16:3],{16}7,8,6,3,4,2,6,5,7,2,1,3,
{8}7h[8:1],5h[8:1],3h[8:1],1h[8:1],{16}7,5,6,4,5,3,4,2,
8/1,{32},,,,2x/7h[16:1],3x,{8}4x,{32}6x/2h[16:1],5x,{16}4x,1/8,{32},,,,7x/2h[16:1],6x,{8}5x,{32}3x/7h[16:1],4x,{16}5x,
1/2,,,5/4,,,{8}7/8,{16}6h[8:1]/5h[8:1],,,5h[8:1]/4h[8:1],,,{8}4/3,
{16}1/8,1/8,,2b/7b,,,,,,,,,,,,,{2}5s1[8:1],
5-1[8:1],
{8}4,{16}4,4,,4,,4h[16:5],,,,,{4}6h[8:1],
{16}2,1,3,7,8,6,3,4,{8}1v4[8:1],5-8[8:1],1,5,
{16},,,,4,4,{8}6,{16}3,3,{8}5,3-6[8:1]/7-2[8:1],8/4,
{4}7-4[8:1]/3-8[8:1],7/3,B3/B6/Cf,3h[8:1]/6q3[8:1],
6/2<7[8:1],2/5p4[8:1],5,{32}1x,2x,{16}3x,{8}7h[8:1],
{32}2x,3x,{16}4x,,,7,5,,6,{8}4,{16}3,4,2,6,5,7,
{32}1x,2x,3x,4x,,,,,8x/4x,7x/3x,6x/2x,5x/1x,,,,,2x,3x,4x,5x,,,,,1x/5x,8x/4x,7x/3x,6x/2x,,,,,{4}2b-7[8:1]/6b-3[8:1],
{32}2b/6b,Cf,,,,,,,{16}B1/B2/E3/B3/Cf,,,B5/B6/E7/B7/Cf,,,{8}B5/B4/E5,
8/1-5[8:1],2,1/8-4[8:1],7,{4}8/3-1[8:1],3,
{16}7,8,6,2,1,3,6,5,{8}7/8,4/6,1/8,4h[4:1]/3h[8:5],
,,{4}4,{16}4h[16:3],,,5h[16:3],,,{8}6,
{4}6b-8[8:1]*-1[8:1],6,{16}2,4,,3,{8}5,{16}6,4,
{8}2/1,5/3,8/1,6/4,{4}7/8,{16}7,5,,6,
{8}4,{16}5,3,,8,3,6,1,7,3,5,1-5[8:1],7,3,5,
{32}1b,Cf,{4},,{16},,,{4}4h[8:1]/5h[8:1],
{16}1,8,2,7,1,8,3,6,{48}1bx-5b[8:1],2x,3x,4x,,,8bx-4[8:1],7x,6x,5x,,,{8}1b,8b,
{24},,,,{6}1h[6:1],{3}4,{6}2h[6:1],5,
,3h[6:1],{3}6,{6}4h[6:1],7,
,5h[6:1],,,{3}6h[6:1],
{6},7h[6:1],,,8b,8b,
E
