&title=八月のif
&artist=Poppin'Party
&first=0.03
&des=PoPiPa! PiPoPa! PoPiPaPaPiPoPa!
&lv_5=12+
&inote_5=(120)
{1},
{16}2h[16:3],,,4h[16:3],,,3h[8:5],,,,E8,,C,,E4,,
{16}7h[16:3],,,5h[16:3],,,6h[8:5],,,,E2,,C,,E6,,
{16}3h[16:3],,,4h[16:3],,,2h[8:5],,,,E8,,C,,E4,,
{16}6h[16:3],,,5h[16:3],,,7h[4:1],,,,1,,28,,37,,
{8}4b-8[8:1]/6b,,6,7-4[8:1],,1,2,3,
{8}4-8[8:1],,5,7-4[8:1],,1,2,3,
{8}5b/4bh[4:1],,6,5b/7bh[4:1],,1b<3b[4:1],7b,1b,
{8},7,16,2,37,{16}6,5,6,,47,,
{8}8bp4[4:1]/2b,,,1,2,5,3q5[8:3],6h[8:3],
{16},,,,,,6,4,7p3[4:1],,,8,,,1,,
{16}2q6[4:1],,,,1,,8,,7<3[3:1],,,,4>8[3:1],,,,
{8}1^6[4:1],,6pp1[2:1],,5,4,3,2,
{8}2^5[4:1],,,8,7,4,6p4[8:3],3h[8:3],
{16},,,,,,3,5,2q6[4:1],,,1,,,8,,
{16}7p3[4:1],,,,8,,1,,2^5[4:1],,,,6,,7v4[4:1],,
{8},2,1,2,{16}35,,6,6,3,5,1b,,
{16}2b/4b^7[4:1],,,3,4,,4,,5-3[8:1],,5,,8-6[8:1],,8,,
{8}2,1,25,{16}7,1,6,,3,4,2,,16,,
{16}7^4[4:1],,,8,7,,1,,2-5[4:1],,3,,2,,8-4[4:1],,
{8},1,2^5[4:1],,{16}6,,,7,,,8,,
{16}7/5^2[4:1],,,6,5,,5,,4-6[8:1],,4,,1-3[8:1],,1,,
{8}7,8,74,2,35,6,47,3,
{8}2b/5b,,17,17,26,26,35,3bh[4:1]/5b,
{16},,6,,4b/7b,,3,5,2,,4b/3b,,5,5,3,3,
{16}4xh[8:1],,2x,3x,,1x-5[4:1],2x,,,,E3,,C,,E7,,
{16}5xh[8:1]/6x,,7x,6x,,8x-4[4:1],7x,,,,E7,,C,,E3,,
{16}4xh[8:1]/3x,,2x,4x,,1x-5[4:1],3x,,,,E3,,C,,E7,,
{16}5xh[8:1]/6x,,7x,5x,,8x-4[4:1],6x,,,,E7,,C,,E3,,
{16}3h[16:3],,,4,3,,45,,6,4,7,,82,,73,,
{16}6h[16:3],,,5,6,,54,,3,5,2,,71,,26,,
{16}35,,6,4,7,,3,5,2,,17,,57,,37,,
{16}64,,3,5,2,,6,4,7,,82,,42,,62,,
{8}37,5,26,4,35,46,37,28,
{4}1bh[2:1],,8b-4[8:1],8bw4[8:1],
{16}8b,,,,26,,3,4,,6,5^2[8:1],,,,5/1q5[8:1],,
{16},,1,,8,,7,5,6,5,7,,8p4[8:1],,,,
{16}81,,,3,4,,25,,6,,5-1[8:1],,8V64[16:3],,5,,
{16}8,,,3,4,,2,4,3,4,2,,3,5,4,6,
{16}5hx[8:1],,,4hx[8:1]/6hx[8:1],,,3x/7xp5[8:3],,,,1,,2,,3,,
{16}4hx[8:1],,,5hx[8:1]/3hx[8:1],,,6x/2xq4[8:3],,,,8,,7,,6,,
{8}5bh[4:1],,3,4b/2b-5[8:1],,2b/6bpp5V31^6b[2:1],,C/E4f/E3/E5,
{8},,,2,1b-5[8:1],,1b^6[8:1]*^4[8:1],,
{16}1b,,,,73,,6,5,,3,4^7[8:1],,,,4/8p4[8:1],,
{16},,8,,1,,2,4,3,4,2,,1q5[8:1],,,,
{16}18,,,6,5,,7/4-2[8:1]*-8[8:1],,,,4-6[8:1]*-1[8:1],,,,4,,
{16},,2,,3,,7,5,6,5,7,,6,4,5,3,
{8}4-6[8:1],4,2-4[8:1],2,8-6[8:1],8,5-1[8:1],5,
{16}6,,7,,28,,3,4,2,5,3,,6,5,7,4,
{8}8b/2b,3,1b/7b,6,2b/8b,4,5b/6b,1b/8b,
{8},27,36,{16}4,4,5,3,6,2,7,1,8pp5[4:7],1,
{1},
{1},
{8}1b/8b,,27,27,36,36,45,2b/4b<1[4:1],
{8},4b,3b,2b,{16}8,2,7,3,6,4,5,4,
{16}6b-1[8:1],,,4,6,,3,,2-6[8:1],,2,,8-4[8:1],,8,,
{16}3-8[8:1],,,5,3,,6,,7-3[8:1],,7,,1-5[8:1],,1,,
{16}6^1[8:1],,,4,6,,3,,2-6[8:1],,2,,8-4[8:1],,8,,
{16}3^8[8:1],,,5,3,,6,,7-3[8:1],,7,,1-5[8:1],,1,,
{16}7-4[8:1],,,1,7,,2,,3-7[8:1],,3,,5-1[8:1],,5,,
{16}2-5[8:1],,,8,2,,7,,6-2[8:1],,6,,4-8[8:1],,4,,
{16}7bh[4:1],,,,1,,2b/6b,,3,4,2b<4b[4:1],,7b,,2b,,
{16},,7,,16,,2,,38,,4,5,3,6,2,7,
{1}1pp5[4:7],
{1},
{1}8pp5[4:7],
{1},
E
