&title=爆弹魔(Re-recording)
&artist=yorushika
&first=0.25
&lv_5=13+
&des=torli
&des_5=torli
&inote_5=
(180){4}5/4,{8},,2/4,,,4/7-2[4:1],
,,,,,,,,5h[2:1]/4bqq4b[4:1],
,,,,,,5/2v7[4:1]*q7[4:1],
,,,,8,8,8,8,
{2}7/4,{8}5/4,,,4/2<7>2[8:3],
,,,,,5h[8:3],,,2,
1-5[8:1],{48},,,,,,1b/4h[8:3],Cf,{4},,{16},{48},{8}8,
7,6-4[8:1],3,{4}2-6[8:1],{8}1,8h[4:1],
,5,4,3h[4:1],,4-1[8:1],5,6,
7,6,5-8[8:1],3,{4}2-6[8:1],{8}1,8h[4:1],
,2,3,4h[4:1],,6,7,8,
1,2,3-5[8:1],6,{4}7-3[8:1],{8}8,1h[4:1],
,5-8[8:1]*-2[8:1],{4}5,{8},7,6,2b/5h[4:1],
,2,3,7b/4h[4:1],,8x,{4}8x,
{8}4/5,3,2/6,7,{4}8-4[8:1]/1-5[8:1],8b/1b,
7-5[8:1],7/1h[4:1],{8}4,4,5,6/2-6[8:1],
,8,{4}8,{8}6,5,{4}4/7,
2-4[8:1],2/8h[4:1],{8}5,5,4,3/7-3[8:1],
,1,{4}1,{8}8,8,8,8,
{4}2>5[8:1],8-4[8:1],1,{8}2,2-5[8:1]*-6[8:1],
{16},,,,,,B5,B6,{8}E7,E3,{4}C,
3/7-4[8:1],{8}1,2-6[8:1],,8,{4}8,
{8}6/5,4,7,5/2,{4}1-5[8:1]/8-4[8:1],1b/8b,
3-1[8:1],3/5,{8}7-3[8:1],7,{4}5,
6-8[8:1],6/4,{8}2<7[8:1],2,{4}4-8[8:1],
4/5,{8}6,7,8-4[8:1],8,{4}1,
3-5[8:1],{8}6,7,{2}8-5[8:1]*-3[8:1],
{4}4/2h[4:1],{8}6,5/7h[4:1],{16},,5,6,4,5,{8}3,
1/2,2/1w5[8:1],,1b,,8,7,6,
5/2,5/2,1,7/4,4/7,8,1x,1x,
,D7,D6,D5,E2,E3,E7,E6,
{1}Cfh[2:1],
{8}7-4[8:1],4-8[8:1],7,3,2,2<7[8:1],,2/4-8[8:1],
,4/1,,5,{4}5<8[8:1]*>2[8:1],5qq5b[4:1]*pp5b[4:1],
{8},,,,8/2,3/7-3[8:1],,5-8[8:1]*-2[8:1],
,5,,6,{4}7-4[8:1],{8}4V61[4:1],3,
{4}2-6[8:1],{8}2,4,{4}5-8[8:1],{8}3,2,
{4}1<6[8:1],{8}5-8[8:1],5,2-6[8:1],2,1,8,
7b,{16}4,5,3,6,{8}3,7/2,1-3b[8:1]/8-4b[8:1],{48},,,,,,8b-6b[8:1]/1b-5b[8:1],Cf,,,,,,,,,,,8b/1b,
Cf,,,,,,,,,,,,,,,,,{16}4,5,3,6,2,7,1,8,
{8}2-5[8:1],5-1[8:1],2,6,7,8-3[8:1],,8/4-8[8:1],
,4/7-3[8:1],,5,{4}5w1[8:1],5b,
{8}7-4[8:1],4-6[8:1],7,3,2,1<6[8:1],,1/4-7[8:1],
,4/2-6[8:1],,5,{4}5-8[8:1]*-2[8:1],5b,
{8}7-4[8:1],3,7-3[8:1],2,7-1[8:1],1-6[8:1],2,3,
4-2[8:1],5,4-1[8:1],6,4-8[8:1],8-3[8:1],7,6,
5,6,7-3[8:1],5,7,4,2,1b>7[16:3],
,8w4b[8:1],{48},,,,,,8b,Cf,{4},,{16},{48},{8}1,
2,3-5[8:1],6,{4}7-3[8:1],{8}8,1h[4:1],
,4,5,6h[4:1],,5-8[8:1],4,3,
2,3,4-2[8:1],7,{4}8-4[8:1],{8}1,1h[4:1],
,3,4,5h[4:1],,3,2,1,
8,7,6-4[8:1],3,{4}2-6[8:1],{8}8,7h[4:1],
,2-5[8:1],1,8,,2,3,7b/4h[4:1],
,7,6,2b/5h[4:1],,1x,{4}1x,
{8}5/4,6,7/3,2,{4}1-5[8:1]/8-4[8:1],1b/8b,
{8}3h/E5,3h,3h,3h,3h/E7,3h,3h,3h/C,
3h,3h,3h,3h,3h,3h,3h,3h,
6h/E5,6h,6h,6h,6h/E3,6h,6h,6h/C,
6h,6h,6h,6h,8h,8h,8h,8h,
3h/E7,3h,3h,3h,3h/E1,3h,3h,3h/C,
3h,3h,3h,3h,3h,3,2,1,
{1}8b-4b[2:1],
{8}3/4,5,2,6/5,4,7,{4}8-4[8:1]/1-5[8:1],
{8}1b/8b,,,2-6[8:1],2,4,{4}4-8[8:1],
4/7<4[8:1],2,{8}1,1,{4}3b/7b,
3-6[8:1],{8}3,8,7-3[8:1],7,{4}5-1[8:1],
5/2>5[8:1],7,{8}8,8,{4}6b/2b,
5/7h[4:1],{8}3,4/2h[4:1],{16},,4,3,5,4,{8}6,
8/7,7/8w4[8:1],,8b,,1,2,3,
{4}4>5[2:3],{8}5,6,,6,{4}7,
{8}4,3,,3,{4}2,1b,
{8},8-4[8:1],2,8,3,2,6,6,
6/5,4,7,4/3,5,2,{16}1,8,2,7,
{8}3-8[8:1],6,3,5V71<5[8:3],3,3,,2-6[8:1],
,2/4-7[8:1],,4,{4}1w5[8:1],1b,
{8}7-3[8:1],4,7,5-1[8:1],8,8-4[8:1],,4v6[8:1],
,1>7[4:1],,7,{4}8w4[8:1],8b,
2-6[8:1],{8}2/5<8[8:1],4,{4}5/3-7[8:1],{8}3/4,5,
{4}6h[4:1],{8}1,2-6[8:1],4,2,8<2[4:1],5,
8b,,,1,{4}2-5[8:1],{8}5V38[4:1],7-3[8:1],
{48},,,,,,7b,Cf,,,,,,,,,,,,,,,,,{2}1b-5[8:1]*z5[8:1],
{8}7-4[8:1],4-8[8:1],7,3,2,1<6[8:1],,1/5-8[8:1],
,5/2p6[8:1],,4,{4}4w8[8:1],4b,
{8}2-5[8:1],5-1[8:1],2,6,7,8>3[8:1],,8/5-1[8:1],
,5/7-3[8:1],,4,{4}5-2[8:1]*-8[8:1],5b,
{8}7-4[8:1],4-8[8:1],7,3,2-5[8:1],7-3[8:1],2,7,
2-4[8:1],8,2-6[8:1],6-1[8:1],2,4,{16}5,6,{8}7,
8-4[8:1],5,8,3,7,8<2[4:1],3,8,
,1bw5b[8:1],{48},,,,,,1b,Cf,{4},,{16},{48},{4}7-5[8:1],
{8}4,3,{4}2-4[8:1],{8}1,8,
{4}7-1[8:1],{8}2,3,{4}4-1[8:1],7-3[8:1],
2-4[8:1],{8}5,6,{4}7-5[8:1],{8}8,1,
{4}2-8[8:1],{8}7,6,{4}5-8[8:1],1-3[8:1],
7-5[8:1],{8}4,3,{4}2-4[8:1],{8}1,8,
{4}7-1[8:1],{8}2,3,{4}4-1[8:1],7<4[8:1],
{8}8,,,1,{16}2,3,4,5,7,6,5,4,
{8}1,1,8,7-5[8:1],,4,3,2,
1h[4:1],3,3,2h[4:1],4,4,3h[4:1],5,
5,4h[4:1],6,6,{4}7-3[8:1],4>5[4:1],
{2}8b,{16}8,7,6,5,1,2,3,4,
7,6,5,4,3,2,1,8,7,6,5,4,3,2,1,8,
7h[16:3],,,5h[16:3],,,{8}8h[8:1],{16}2h[16:3],,,4h[16:3],,,{8}1,
{16}E7,B6,B5,E5,E1,B1,B2,E3,{8}8,8,{4}6b/2b,
{16}2h[16:3],,,4h[16:3],,,{8}1h[8:1],{16}7h[16:3],,,5h[16:3],,,{8}7,
{1}8b-4b[2:1],
1>8[4:7],
,Ch[1:1],
8V64[2:1],
{8}1b/5h[4:3],,,,,3,{4}3,
{8}8b/4h[4:3],,,,,6,{4}6,
8V64[4:3],{8}1,1,,3,3,3,
,E7,E6,E5,E1,B8,C,B4,
{2}E5,5h[4:1]/4h[4:1],
{4}4h[8:11],{8}5,5,,,6,6,
,5,5,5,{4}6/4,7/3,
5h[8:11],{8}4,4,,,3,3,
,4,4,4,{4}3/5,2/6,
{8}7h[2:1],,,5,{4}4-2[8:1],{8}8,7,
{4}6h[4:1],1<6[8:1],5-8[8:1],2-6[8:1],
{8}1,,,3,2,1-3b[8:1]/8-4b[8:1],{48},,,,,,8b-6b[8:1]/1b-5b[8:1],Cf,,,,,,,,,,,8b/1b,
Cf,,,,,,,,,,,,,,,,,{8}7/3,{16}4,5,3,6,3,7,
{8}2-5[8:1],5-1[8:1],2,6,7,8-3[8:1],,8/4-8[8:1],
,4/7-3[8:1],,5,{4}5w1[8:1],5b,
{8}7-4[8:1],4-6[8:1],7,3,2,1<6[8:1],,1/4-7[8:1],
,4/2-6[8:1],,5,{4}5-8[8:1]*-2[8:1],5b,
{8}1,2,3,4>5[4:1],8,8,,,,7/3,
7/3,7/3,{16}4,6,4,6,3,7,3,7,
{8}2-5b[8:1],5-1b[8:1],2,6,7,8-4b[8:1],,8/5>2b[8:1],
,7/5,,5,{4}5<8b[8:1]*>2b[8:1],5qq5b[4:1]*pp5b[4:1],
{8},,,,1/7,6/2-6b[8:1],,4-1b[8:1]*-7b[8:1],
,4b,,3,{4}2v5b[8:1],{8}5V38b[4:1],6,
{4}7-3b[8:1],{8}7b,5,{4}4>1b[8:1],{8}6b,7,
{4}8-3b[8:1],{8}4b-1b[8:1],4,7-3b[8:1],7,8b,1,
2b,{16}5,4,6,3,{8}6,2/7,8-6b[8:1]/1-5b[8:1],{48},,,,,,1b-3b[8:1]/8b-4b[8:1],Cf,,,,,,,,,,,1b/8b,
Cf,,,,,,,,,,,,,,,,,{16}5,4,5,4,6,3,6,3,
{8}7b-4b[8:1],4-8b[8:1],7,3,2,1<6b[8:1],,1/5-8b[8:1],
,5/2p6b[8:1],,4,{4}4w8b[8:1],{48}4b,Cf,,,,,,,,,,,{8}2b-5b[8:1],
5-1b[8:1],2,6,7,8>3b[8:1],,8/4-1b[8:1],
,4/7-3b[8:1],,5,{4}5w1b[8:1],{48}5b,Cf,,,,,,,,,,,{8}7bv4b[8:1],
4V61b[8:1],7b,1,2b-5b[8:1],7-3b[8:1],2b,7,
4b-8b[8:1],8-3b[8:1],4b,7,{16}5b-1b[8:1],6,{8}7-4b[8:1],5b,7,
2b-6b[8:1],5,2,8,7b>3b[8:1],3>7b[8:1],7b,4,
,5bw1b[8:1],{48},,,,,,5b,Cf,{4},,{16},{48},{8}1,
2,3-5[8:1],6,{4}7-3b[8:1],{8}8,1h[4:1],
,4,5,6h[4:1],,5-8[8:1],4,3,
2,3,4-2[8:1],7,{4}8-4b[8:1],{8}1,1h[4:1],
,3,4,5h[4:1],,3,2,1,
8,7,6-4b[8:1],3,{4}2-6b[8:1],{8}8,7h[4:1],
,2-5b[8:1],1,8,,2,3,7b/4h[4:1],
,7,6,2b/5h[4:1],,1x,{4}1x,
{8}5/4,6,7/3,2,{4}8/1pp1b[4:1],{16}1b/5b,Cf,
E
