&title=Abstruse Dilemma
&artist=Ashrount vs. 打打だいず
&first=-0.45
&des=Morimiya
&lv_5=14+
&inote_5=(216){1},,
{4}5/3,6<3qq6[4:5]/4h[2:1],,,
5hx[2:1],,,,
4,3h[2:1]/5pp3>7[8:9],,,
4hx[2:1],,,,
4/6,3>6pp3b[4:5]/5h[2:1],,,
4hx[2:1],,,,
5,6h[2:1]/4qq6<2b[8:9],,,
5hx[2:1],,,,
{12}3b/7b,,,6,5,7h[12:1],4,,,3,4,2h[12:1],
5,,,1,2,3,5,6,7,1/8,2,3,
4b/6b,,,3,5,1,7h[4:1],,,2,6,4,
8h[4:1],,,5,4,3,8,7,6,54,3,2,
1b/7b,,,6,2,4,8h[4:1],,,5,3,7,
1h[4:1],,,5,6,7,18,2,3,45,6,7,
8b/2b,,,6x,5,6,3x,4,3,5x,6,7,
2x,1,2,7x,8,7,1x,2,3,4x/5x,6,7,
{4}8bxs4[2:1]*s4[2:1]/1bx,,,,
{32}1hx[4:1]/5x,6,7,8h[32:13],{8},{32},2,3,4h[4:1],{8},{32},7,6,5h[32:5],{8},C1,,
{12}2^5[8:1],,,2/5,,,6,5,7,4,8,3,
1^6[4:1],,,6^3[4:1],,,3v8[4:1],,,2,,,
2v5[8:1],,,2/1,,,7,4,6,3,5,2,
4qq1[2:1],,,5,,,6,,,5,6,7,
8/2,3,4,7,5,5,7,6,5,1,4,4,
1,2,3,1/4,8,7,6/5,4,3,2/8,,,
2bx/7bx,3,4,5x/8b,4,3,2bx/7bx,6,5,1b/4x,5,6,
E2/7x,E3,E4,E8,E7,E6,C1h[4:1],,,4x,5,6,
7v4[8:1],,,7/8,,,2,5,3,6,4,7,
5<1[4:1],,,1>5[4:1],,,5p1[4:1],,,7,,,
7-4[8:1],,,1-5[8:1]/7,,,1/6-2[8:1],,,4qq8[2:1]/6,,,
4/5,,,6,,,7,,,6,5,8,
1h[4:1],,,5,4,8,1h[4:1],,,4,3,8,
1x,1,1,3x,3,3,5x,5,5,7x,7,7,
1hx[1:1],,,E2,B2,B3,E4,,,B7,B6,E6,
5hx[2:1],,,A6,A7,A8,A1,A2,A3,5x,6x,7x,
(108){8}4bx/8bxqq6qq4[2:1],,8,3,2h[8:1],,1h[8:1],,
1-6[8:1],2,1-4[8:1]/5,,1/7-3[8:1]*>3[8:1],6,7,,
5x-8[8:1],4,5/3,2,1-4b[8:1],8,1/7,6,
5h[4:1],B3,B2,E2,(216){12}5,6,7,18,2,3,6,7,8,12,3,4,
1v6[8:1],,,1/2-4[8:1],,,2-8[8:1],,7,2,,,
6,,8,7,,4,5,,2,1,,,
5v2[8:1],,,5/6-8[8:1],,,6-4[8:1],,3,6,,,
2,,4,3,,8,1,,6,5,,,
4/7-5[8:1],,,3v8[8:1]/7,,,3/4-7[8:1],,,1-3[8:1]/4,,,
1-5[8:1]/8-6[8:1],,,1/8-4V68[8:3],,,8,,,2,,,
4,3,2,41,5,6,17,2,3,14,8,7,
{24}4x,5,6,7,8,1,{12}2-6b[8:1],,,2b/8bh,,,5x/8x,4/7,3/6,
{4}5bx-8[2:1]*>8[2:1]/2bx,,,,
B1/B2/B3,E6/E7,C1,{12}2/5,6,7,
3/8p4[4:1],,,4<8[4:1]/8,3,2,1-4b[8:1],,,1,,,
1-6[8:1],,,1/4,3,2,1-5b[8:1],,,1/7,,,
8,,,4-8[8:1]/7,3/6,2/5,1/4,,,1/7,6,5,
4/8,7,6,7/5,6,5,6/4,5,4,3/5,,,
5v2b[8:1],3,7,5,,,8v3b[8:1],2,6,8,,,
4hx[24:1],,,6hx[24:1]/C1,,,2hx[24:1]/C1,,,4hx[24:1]/8hx[24:1],,,
7/3,6/3,5/3,4x/3x,,,1/2,1/3,1/4,1x/5x,,,
8,8,8,8,8,8,{24}1x/7x,2x/6x,3x/5x,4x,{12},6/2,,,
7/1q5b[4:1],,,5>1b[4:1]/1,6,7,8-5[8:1],,,8,,,
8-3b[8:1],,,8/5,6,7,8-4[8:1],,,8/2,,,
3bv8b[8:1],,,3x/5x,,,6bv1[8:1],,,6x/4x,,,
{24}4b,5,6,7,8,1,2,3,4,5,6,7,{12}8xw4[8:1]/C1f,,,,,,
3x,4,2,6,5,7,1,5,3,8,4,6,1x,2,3,4x/5x,6,7,1x/8x,2,3,4x/7x,,,
5b/6b,6x,6x,4x/7x^4[8:1],4x,4x,3x/7x,,,1b,1x,1x,
8x-4[8:1]/2x,8x/2x,8x/2x,8x/2x,,,2x,2x,2x,2xv5b[8:1]`6xv1[8:1],6x,6x,
{2}2bxpp7>3b[4:5]/C1f/B2/B6`6bxpp3<7[4:5],,,,
{12}8h[4:1],,,5,4,3,2h[4:1]/8,,,7,6,5,
1/4h[4:1],,,8,1,2,3/8,7,6,1/5,2,3,
{24}5x,4x,5x,,{12}3,6,2,7,{24}1x,8x,1x,,{12}7,1,8,2,
{24}7,6,5,4,,,8h[12:1]/2,3,4,5,,,8x,1,2,3,4,5,1x,8,7,6,5,4,
{12}3x/8hx[2:1],,,E2,B1,B8,E8,,,E6,B5,B4,
E4,,,1,2,3,1-4b[4:1],8,7,1-6v7[2:1],,,
1x,,,,,,{48}1b,2,3,4,5hx[24:7],,,,{24},,8x,,,7x,,,
{12}6x,5x,8x,1x>7[8:3],4x,3hx[3:1],1bx,,,,,,
{12}2hx[6:1],,,7,{24}1x,2,3h,4,{6}8b/5bp1b[4:1],6,7,
{12}8<4q8[2:1],,,3,2,1,8xv6[4:1],,,2x<2b[2:1],,,
2,,,,,,{48}8b,7,6,5,4hx[24:7],,,,{24},,1x,,,2x,,,
{12}3,4,1,8<2b[8:3],5,6h[3:1],8b,,,,,,
{12}7hx[6:1],,,2,{24}8x,7,6h,5,{6}1b/4bq8[4:1],3,2,
{12}1bh[4:1],,,E1f,E8f,E7f,2bx/E6f,,,7bxv2[4:1]/E4,,,
4hx[3:1]/7x,,,,,,{48}1b,8,7,6,5hx[24:7],,,,{24},,4x,,,3x,,,
{12}2,5,1,6,8,7h[3:1],{24}1b,2,3,4,5,6,,8,1,2,3,4,
{12}7x/5hx[6:1],,,1,5h,7,3bh,5,1h,4,5,6,
2x/7x,,,3/7,6,5,2qq7b[2:1]/4,,,2x/5hx[2:1],,,
,,,,,,{48}8b,1,2,3,4hx[24:7],,,,{24},,5x,,,6x,,,
{12}7,4,8,3,1,2h[3:1],{24}8b,7,6,5,4,3,,1,8,7,6,5,
{8}2bx/4hx[6:1],A8/E8/E1/B8/D8/D1,,,3hx[6:1]/5bx,A7/E7/E8/B7/D8/D7/B8,,,
{24}8b/2b,3,4,5,,,1b/7b,6,5,4,,,{32}2b,3,4,5,6,7,8x,1,2bx/6b-2[8:1],5,4,3,2,1,8,7,
{12}6bxV84>8[4:5]*v4>8b[4:5]`C1f,,,,,,{2},,,
{12}7h[2:1],,,,,,4h[1:1],,,E8,E1,E2,
E3,E4,E5,E6,,,,,,6h[4:1],,,
4-8[4:1],,,4,,,5-1[4:1],,,5,,,
4^1[4:1],,,4,,,5^8[4:1],,,5,,,
1hx[1:1],,,,,,,,7,,6,,
5-8[2:1]*>8b[2:1],,,,,,,,,,,,
7b,,,E4,B4,B6,1b,,,E6,B5,B3,
8b,,,A4,A5,A6,2b,,,7,6,5,
4/3b,,,1,2,3,4/5b,,,2/8,7,6,
5/4b,,,2/8,3,4,5/6b,,,8,,4,
4/8-6[8:1],,,8-4[8:1]/4,,,8/3,,,2,,5,
5/1-3[8:1],,,1-5[8:1]/5,,,1/6,7,8,{24}1x,2x,3x,4x,5x,6x,
{12}7hx[2:1],,{36}A3,D4,A4,D5,A5,D6,A6,D7,,D8,A8,D1,{12},,6,,5,,
{12}1,2,3,{16}5,6,7,8,{24}3,4,5,6,7,8,{32}1,2,3,4,5,6,7,8,
{4}1bhx[1:1]/5bhx[4:3],,,,
{16},,5x,6x,7x-3[8:1]/8x-2[8:1],,,,{4}7-5[8:1]/8-4[8:1],7/8,
{12}1hx[4:1],,,{32}8b-4[8:1],7,6,5,4,3,2,1,{12}8bx^3[8:1]*^5[8:1],,,8,,,
{4}4-8[8:1],4/7-5[8:1],7/1-3[8:1],1-5[8:1],
{12}1b/4b,,,6x,7,8,1-6[8:1]/5-1[8:1],,,15,,,
{24}2x,3,4,,,,1x/5x,2,3,,,,6x,5,4,,,,7x/3x
,6,5,,,,
{36}8b,E8,B7,B6,,,4b,E4,B3,B2,,,6b,E7,B7,,,,2b,E3,B3,B4,,,7b,E7,B6,B5,,,3b,E3,B2,,,,
{12}8bx,,,2x/8x-3b[8:1],7,6,5x/8x-4[8:1],6,7,8,,,
2xv5b[8:1],,,1/2,,,7h[6:1],,3h[6:1],,5h[6:1],,
1,2,3,2/4,3,4,3/5,4,5,4/6,5,6,
7bhx[4:1],,{24},4x,5x,6x,,8x,1x,2x,{12}3bhx[6:1],,5hx[6:1],,1hx[6:1],,
8bx^3[4:1],,,3^6[4:1],,,6v1[4:1],,,,,2hx[3:1],
,,,5,6,7,1,2,3,1,8,7,
4/6,3,2,1x/5x,2,3,4/8,7,6,1x/5x,6,7,
2x/8x,B3,B7/E7,1x,B6,E2/B2,8bx,,,6x/4x,B7,B3/E3,
5x,B2,E6/B6,4bx,,,7x/4x,6/3,5/2,1x/4x,2/5,3/6,
B4,B3,B2,E6,E7,E8,E1,,,D2,D3,D4,
A8,A7,A6,A5,,,1x,2,3,8x,7,6,
4x/5x,4/5,4,3x/5x,3/5,5,3x/6x,,,3x/7x,3/7,3,
4x/7x,4/7,7,4x/8x,,,5x/1x,4x/8x,3x/7x,2x/6x,5x/1x,4x/8x,
3hx[1:1]/7hx[2:1],,,,,,,,,,,,
{16}7bx,8,1,2,{24}4bx,5,6,7,8,1,{32}3bx,4b,5b,6b,7b,8b,1b,2b,{12}7bx^4[8:1]`3bxq7b[8:1],,,
7b/3bp8[2:1],,,,,,5x,,,5bxp2b[2:1],,,
,,,8x,,,8bx,,,7,6,5,
4/2,,,1bx,,,2,3,4,5/7,,,
6b,4,6,3,5,3,6,7,8,2b,1,2,
7,8,7,1,2,3,4b/6b,7,8,5b/1b,4,3,
2bh/8bh,,,{36}7bx/1hx[12:1],6,5,,,,,,,,2h[12:1]/8b,7,6,,,,,,3h[12:1]/1b,8,7,,,,,,,
{12}6b/4b,3,2,1bx/8bx,7,6,4bx/5bx,3,2,{32}1bx/7b,6,5,4,3,2,1,8,
7bx,6,5,4,3,2,1,8,7bx,6,5,4,3,2,1,8,4b,5,6,7,8,1,2,3,4bx,5,6,7,8,1,2,3,
{12}4bpp8[2:1]*qq8[2:1],,,,,,,,,,,,
(216){48}8b,1h/7h,6v1q4<8q3[24:77]`2v7p4>8p5b[24:77],3h/5h,4,,{8},,,,,,,{1},,{2},{4},1s5[8:1],
