&title=HE∀ting sФul
&artist=片霧烈火/PCゲーム「真・恋姫†無双」主題歌
&first=0.65
&lv_1=音
&lv_5=13+
&des_1=オフセット合わせ
&des_5=GANTZ
&wholebpm=182
&demo_len=13.6
&inote_1=(182)
{4}1,8,1,8,1,8,1,8,1,8,1,8,1,8,1,8,1,8,1,8,1,8,1,8,1,8,1,8,1,8,1,8,
1,8,1,8,1,8,1,8,1,8,1,8,1,8,1,8,1,8,1,8,1,8,1,8,1,8,1,8,1,8,1,8,E
&inote_5=(182)
{8}
1-5[8:1]/7,8,1,,8,74,,3h[8:6],
,7,7,6,6,5,,,
3-7[8:1],4,3,,5,6,,71,
,8h[8:1],1h[8:1],7h[8:1],2h[8:1],8b,,,
8-4[8:1]/2,1,8,,1,25,,6h[8:6],
,2,2,3,3,4,,,
6-2[8:1],5,6,,4,3,,82,
,1h[8:1],8h[8:1],2h[8:1],7h[8:1],1b,,,
8>3[4:1]/7,,8,7p4[8:3],,7,,3>6[2:1],
,,,,,,,,
5p8[4:1]/4,,5,5-2[8:1],,5,,7h[4:1],
,,6h[4:1],,5h[8:1],,43,,
2v8[8:1]/6v4[8:1],,26,,37,37,26,26,
,,1-4[8:1],,1-6[8:1],,1,,
3^1[8:1]*^1[8:1],,3,6^4[8:1]*^4[8:1],,6,3^1[8:1]*^1[8:1],,
3,6^4[8:1]*^4[8:1],,6,3,2b/5b,,,
,,7h[8:3],,1,8-3[8:1]*-5[8:1],,8,
,,4qq2[4:1],,4,6,,,
7V13[4:1]*V13[4:1],,3p5[4:1]*p5[4:1],,5>5[1:1]*>5[1:1],4,,3h[8:7],
,,,,,,,,
3h[2:1],,4,,2,2-7[8:1]*-5[8:1],,2,
,,6h[4:1]/4-8[8:1],,4,6,,,
7-4[8:1],,7,,8,1-6[8:1],,1,
5,5p8[4:1],,5,,2b,,,
{16}1,,1,2,3,,{8}37,46,5-7[8:1]*-3[8:1],,5,
,37,28,,1,1>5[2:1],,1,
8,8,7,7,6,6,,47,
,,6h[8:3]/4,3,2,1,,,
18,1,17,1,16,1,15,,
{16}3,4,3,4,3,,
{8}4,5,6,71,,
2-5[8:1],8,2,,7,6qq8[2:1],,6b/3b,
,,,,,,,,
2h[2:1]/7,,,,6<1[4:1],,1-6[8:1],2,
3,,5h[2:1]/2,3,2,3,2,,
25,,16,7h[2:1]/8,,1,,3b,
,,6-1[8:1],,6/5-2[8:1],,5/6<3[2:1],,
6b,,,,,,,,
3,,45,6,,,45,,
3>
5>6[2:1],,,,,,,,
,{16}4,5,4,5,4,5,4b,,{8},,,
2-6[8:1],7-3[8:1],2,7,,5-1[8:1],,5,
,,{16}1,2,3,,1,8,7,,1,2,3,,{8}
1V75[4:1]/2,,1,3-7[8:1],,3,,48,
,15,26,,,7h[8:1],3h[8:1],6h[8:1],
2v8[8:1],,2,7-3[8:1],,7,,{16}1h[8:3],,
,,,,4,5,6,,72,,1,8,1,,82,,
{16}8h[4:1]/2,3,4,5,6,,1h[4:1]/7,6,5,4,3,,8h[4:1]/2,3,4,5,
6,,1h[4:1]/7,6,5,4,3,,82,3,4,5,6,7,8,1,
{16}
2b-5[8:1],,8,7,62,,6,7,8,1,2,3,4,,2,,
1,,1h[8:5]/6,,5,,6,,5,,6,,5,,,,
78,,1,6,1,,2,5,2,5,2,5,2,,34,,
4,5,6,7,84,,4,8,3,7,2,6,1,,,,
7-4[8:1],,8,,7,,1,2,3,,4,,,,56,,
34,,25,,61,,7,8,1,2,3,4,5,6,7,8,{8}
1b-6[8:1],2,1,,2,3-8[8:1]/7-4[8:1],,37,
,15,15,26,26,37,,,
1-5[8:1],8-6[8:1],1,8,4,4-2[8:1],,4,
,15,26,15,26,15,,,
8b-3[8:1],7,8,,7,6-1[8:1]/2-5[8:1],,26,
,84,84,73,73,62,,,
8-4[8:1],1-3[8:1],8,1,5,5-7[8:1],,5,
,84,73,84,73,8b<4[45.5#1:1]/4b>8[45.5#1:1],,,
,,,,,,,,
,,,,,,,,
,,,,,,,,
,,,,,,,,
,,,,,,,,
,,,,,,,,E
