&title=Prism Fountain
&artist=t+pazolite
&first=0.03
&des=T-tc
&lv_5=14
&des_5=T-tc
&inote_5=
(200){4},{8},,,,,,,,,,6/2,
3,7/4,6,
1/5,2,8/3,7,6/4,3,5/2,6,
3h[4:1],5,{4}4b,{8}6h[8:1],5,4,3h[8:1],
{16}5,3,5,3,{4}4h[4:3],{8}C,5x,5x,5x<1[4:1],
{4}5x,{32}B5,C,{16}B1f,,,{8}3x/4x,4x/3x,2/5,3,
7/4,6,5/3,2,4/6,7,2/4,3,
6/4,7x,7x,4xh[8:1],8b,7x,7x,3xh[8:1],
6x,3x,{16}5<1s5[4:3],3,5,3,,,,,,,,,,,,,,,,,{8}3/7,
6,2/5,3,
8/4,7,1/6,2,3/5,6,4/7,3,
6h[4:1],4,{4}5b,{8}3h[8:1],4,5,6h[8:1],
{16}4,6,4,6,{4}5h[4:3],{8}C,4x,4x,4x>8[4:1],
{4}4x,Cf,{8}6x/5x,5x/6x,7/4,6,
2/5,3,4/6,7,5/3,2,7/5,6,
3/5,4,{4}6/5b-3-1[4:1],{8}5,6,7,8,
1/5,2/6,3/7,4/8,{2}1bp3[2:1]/5bp7[2:1],
{16},,,,,,,,1,8,{8}1,7,7,
2,3,6,5,{16}3,4,{8}3,5,6,
2,1,8/2-4>1s5[16:25],3,7xh[8:1],,,6xh[8:1],
,,{4}6b,{8}7xh[8:1],,,8xh[8:1],
,,,,6,{16}4,5,{8}4,6,
2,4,3,6,4,{16}7,5,{8}7,6,
{4}3h[8:1]/5h[8:1],{8}6/4,7<6>5v8[8:7],2xh[8:1],,,1xh[8:1],
,,{4}8b<5[2:1],{8}3xh[8:1],,,4xh[8:1],
{16},,B6/E7,B3,{8}B8,B4/E4,{4}6bxh[4:1],5V71[2:1],
3,1,4xV28[2:1],5,
6,7,8xqq5[4:3],5,
3,1pp4[4:3],1x,5,
6,7,{8}1,2,3,4,
5,6,7,8,{16}1,2,3,4,5,6,7,8,
{32}1,2,3,4,5,6,7,8,1>5V31[8:13],2,3,4,5,6,7,8,{4}1,{16}C,,,B7,
,,,B6,,,,B5,,,,B4,,,,B8,
{4}B7,6h[4:1],5,{8}3/5,3/5,
2,7/1,7/1,6,2/5,{16}3,4,{8}3,{16}6,4,
{8}5-3[8:1]*-3[8:1],7,,,8/2,3,4/6,5,
8/7<5[8:1],1,{4}7,{8}8,6,8,8-3-5[16:3],
6,7,8,1,{4}1-5[8:1],{8}3,3,
2,6/1,{4}1/6,{8}3/5,{16}4,6,{8}5,{16}2,4,
{8}2-5[8:1]*-5b[8:1],5,,,6,{16}5,7,{8}4,{16}6,3,
{8}4,2,{4}5h[4:1],1-5[8:1],8-4[8:1]*-4[8:1],
7-3b[8:1],8h[4:1],{8}5xh[8:1],,,7h[8:3],
6,5,4,3,2xh[8:1],,,6h[8:3],
5,4,3,2,1xh[8:1],,,5h[8:3],
4,3,2,1,1,{16}8,1,{8}8,{16}2,7,
{8}2,6h[8:1],{4}C,{8}7xh/5xh,5xh/7xh,4,3/5,
2,1/6,6,3/5xh[8:1],,6/3xh[8:1],7,8,
5>1[4:1],6,5,7,{4}6xh[8:1],{8}1,5,
3xh[8:1],7,4,7,{16}2,3,4,5,8,7,6,5,
1,8,7,6,{4}8-5-2[4:3],{2}1h[4:1],
{4}2b-7-4[4:3],3h[4:1],,4-1-6[4:3],
{2}3bh[4:1],4-1-5[4:3],
{4}6b,5w1[4:1],{8},,,,,,,,6h[8:1],
{16}4,5,{8}3h[8:1],{16}5,4,
{8}6h[8:1],4h[8:1],7,8<4[4:1],5,4,3<8[16:5],2,
1,1,2,3,3,7,2,8,
{16}1,7,2,6,3,7,2,8,1,1,1,1,1,1,1,1,
{32}1,2,3,4,5,6,7,8,1-5[8:1],2,3,4,5,6,7,8,{2}Cf/B1/B5/1<2[4:29],
{1},,,,,,,{4},,{8}3h[2:1],
4,,5,
{4}6h[8:3],{8}3,2h[8:7],,6,5,4,
{4}3,1h[8:3],{8},4h[8:3],,6,
{4}7h[4:1],{8}4,3h[4:1],,8h[8:3],,3,
4q2[2:1],,,,,7,,7,
{4}2h[4:1],{8}4,5h[8:5],,4,3,2,
1h[8:19],5,6,7,,2,3,4,
5,6,7,8,8,7,8,7,
8-6[8:1],7,{4}8,{8}1b,5,B1/E2,6,
{4}7/B2,8h[8:1]/B3,{8}E2/B1,7h[8:1],B3,6h[8:1],
{4}B4,5/C,6h[8:1]/E1/B1/B8,{8}B2,7h[8:1],
{4}B3,8h[8:1]/B4,{8}E2/B1,8,7/B2,6,
5/B3,5,{4}6h[8:1]/B4,{8}6,3,7,7,
4,6,6,6,3,7,7,7,
2,8,8,8,{32}1,2,3,4,5,6,7,8,1,2,3,4,5,6,7,8,
1,2,3,4,5,6,7,8,1<1[2:1]*<1[2:1],2,3,4,5,6,7,8,{2}1,
{4},Cf,{8}7b/4b,{16}6,5,{8}6,7p3[8:1],
8-4[8:1],7,8,7,6b/2b,{16}1,8,{8}1,7-4[8:1],
1v6[8:1],7,1,8,7b/4b,{16}2,1,{8}2,8p4[8:1],
2-6[8:1],8,2,7,{4}2bxv5-3-1[2:1],5,
6,7,{8}6b/1b,{16}7,8,{8}7,8-6[8:1],
1-5[8:1],8,1,7,4b/7b,{16}5,6,{8}5,7<4[8:1],
8v3[8:1],7,8,6,5b/2b,{16}3,4,{8}3,1-6[8:1],
2-5[8:1],1<3[0.45##0.75],{4}2,1,C,
B2,Cfh[4:1],{8}6b,{16}4,5,{8}4,8-4[8:1],
1-5[8:1],8,1,7,6b/4b,{16}7,5,{8}7,8-4[8:1],
1-3[8:1],8,1,7,8b/3bx,{16}2,1,{8}2,8<5[8:1],
1-5[8:1],8,1,6,4bx-2[8:1],5/7,D4/4x-6[8:1],8,
D5/4x-2[8:1],1,4x/D4,7,5b,{16}3,4,{8}3,6-8[8:1],
5,6-1[8:1],2,{16}3,4,{8}5-3-1[4:1],5,1v4[4:1],8,
7-3[8:1],6,{4}7,{8}4,{16}5,3,,,{8}3,
6,{16}7,5,,,{8}5qq5[8:5]*pp5b[8:5],,,,,,,,,{2}6bh[2:1],
5h[2:1],4h[2:1],
3h[2:1],8h[2:1],
6h[2:1],5h[2:1],
3h[2:1],7bh[2:1],
5h[2:1],3h[2:1],
2h[2:1],6V85[2:1],
5pp6[2:1],1>4-7[8:3],
8-4[8:1],{8}5/1b-7[8:1],3,5/1-3[8:1],3,
{4}5/1-7[8:1],{8}5/1-3[8:1],3,5/1-7[8:1],7,5/1-3[8:1],3,
{4}1/5-3[8:1],5/8,{8}6/1b-3[8:1],6,1-5[8:1],8,
{4}7/1-3[8:1],{8}1-5[8:1],8,1-3[8:1],6,1,8,
6,1,8/2,8/2,1/7b-5[8:1],4,7-1[8:1],2,
7-5[8:1],4,7-1[8:1],2,7-5[8:1],4,7-1[8:1],2,
7-5[8:1],4,{4}7,{8}8/4,4/8,8/4,4/8,
1/5,5/1,1/5,1/5,{16}2bx,6bx,2bx,6bx,2bx,6bx,2bx,6bx,
2bx,6bx,2bx,6bx,{4}2bx,{8}6/2,3,7/4,6,
1/5,2,8/3,7,6/4,3,5/2,6,
2h[4:1],5,{4}4b,{8}6h[8:1],5,4,3h[8:1],
{16}5,3,5,3,{4}4h[4:3],{8}C,5,5,5<1[4:1],
{4}5,{32}B5,C,{16}B1f,,,{8}3x/4x,4x/3x,6/4,6,
2/5,3,4/6,7,5/3,2,7/5,6,
3/5,4,{4}6/5-3-1[4:1],{8}5,6,7,8,
1/5,2/6,3/7,4/8,{2}1bp2>5[1:1]/5bp6<1[1:1],
E
