&title=Arcana
&artist=Maozon
&first=0
&des=Vc
&lv_5=13+
&inote_5=(143)
{4}
,,,,
{48}1b>4[8:14]*-5<8[8:24]/8,2x,7x,,,,{8},,,,,,,
,,,,,,,,
,,,,,,,,
,,,Ch[2:1],,,,,
{16}
8h[16:12],,5,,6,6,,7,,1,,2,2,,7,7,
1h[16:12],,4,,3,3,,2,,8,,7,7,,2,2,
5,4,6,4,5,3,6,3,5,4,6,3,7,2,8,1,
6bxv1>5[8:5]/Cf,,,,,,,,,,,,,,,,
{16}
3h[8:2],,5,,6,,2,,7,,3,5,,6,5,,
7h[8:2],,3,,2,,4,,1,,5,4,,2,4,,
1,3,2,4,3,5,4,6,2,4,3,5,4,6,5,7,
2,4,2,5,2,6,2,7,3,4,3,5,3,6,3,7,
2h[8:2],,4,,5,,3,,8,,3,5,,6,5,,
7h[8:2],,3,,2,,4,,1,,6,4,,3,4,,
2h[8:2],,6,,7,,5,,8,,4,5,,7,5,,
5h[8:1]/1b,,,,8h[8:1]/3b,,,,2h[8:1]/5b,,,,{24}6,1,6,{16}2,6,
{16}
3-6[8:1],,2,,1,,8,,2,,6,5,,3,4,,
2-5[8:1],,1,,8,,7,,8,,4,5,,7,5,,
8,6,7,5,6,4,5,3,7,5,6,4,5,3,4,2,
7,5,7,4,7,3,7,2,6,5,6,4,6,3,6,2,
7-2[8:1],,6,,5,,4,,6,,2,1,,7,8,,
6-1[8:1],,5,,4,,3,,4,,7,8,,2,1,,
5-8[8:1],,4,,3,,2,,{48}3,4x,,,,,7,6x,,,,,,,,1,8x,,,,,,,,
{48}1bs5[8:4]/8,7x,2x,,,,{8},,,,,1-5[8:1],,
1b<6v8[4:7]/5b>2v4[4:7],,,,,,,,
,,,,,,,,
,C,,{16}E4,E5,E6,,,E7,,,E8,,
E1,,,E3,,,E4,,E5,,,E7,,,E6,,
4x,,8,,4,,7,7,4,,8,,4,,6,6,
4x,,,3x/E6,,,2x/E5,,5x/E3,,,6x/E4,,,7x/E5,,
5x>1[8:5]*<1[8:5],,,,,,,,,,,,,,,,
{48}8bz4[2:1]/1,2x,7x,,,,{8},,,,,1>5[24:4],,
{16}
1/7x,,,8,8>5[24:5],,7,,6x/8,,,7,7>5[24:6],,6,,
5x/7,,,6,6-8-3[8:2],,7,,6/4x,,,,5<1[24:4],,,,
5/3x,,,4,4<1[24:5],,3,,4/2x,,,3,3<1[24:6],,2,,
3/1x,,,2,2-4-7[8:2],,3,,2/8,,,,1-3-5[24:5],,,,
1/6x,,,8,8-2-5[24:6],,7,,6x/8,,,7,7-1-4[24:6],,6,,
5x/7,,,6,6<3[8:2],,7,,6/4x,,,,5-7-1[24:5],,,,
5/3x,,,4,4-6-1[24:6],,3,,4/2x,,,3,3,,2,,
{48}1b/2,3x,,{16},,,{48}6/5b,7x,,{16},,,,,{48}4b/5,6x,3x,,,,{16}4xp6<2[8:3],,,,
4x/6,,,5,5p7>3[8:3],,6,,7/5x,,,6,6p8>4[8:3],,7,,
8/6x,,,7,7v5-3[8:2],,6,,7/1,,,,8p2>6[8:3],,,,
8x/2,,,1,1p3<7[8:3],,2,,1x/3,,,2,2p4<8[8:3],,3,,
2x/4,,,3,3-1v7[8:2],,2,,3x/5,,,,4xp7>3[8:3],,,,
4x/7,,,5,5p8>4[8:3],,6,,7/5x,,,6,6p1>5[8:3],,7,,
8/6x,,,7,7-5v2[8:2],,6,,7/1,,,,8p3<7[8:3],,,,
8x/3,,,1,1p4<8[8:3],,2,,1x/3,,,2,2p5<1[8:3],,3,,
2x/4,,,3,3-6v1-4[8:4],,2,,3x/5,,,,4x>4b[8:9]<4[8:7],,,,
,,,,,,,,,,,,,,,,
,,,,,,,,,,,,,,,,
A8,A7,A6,A5,A4,E8,E7,E6,A1,A2,A3,A4,A5,E2,E3,E4,
A5,A6,A7,A8,A1,E6,E7,E8,A4,A3,A2,A1,A8,E4,E3,E2,
Cf,,,,,,E1,,,,E6,,E5,,E4,,
5x,,,,5,,1,,5,,2,,5,,3,,
4x>8[2:1]*<8[2:1],,,,,,,,,,,,,,,,
{48}1bz5[8:3]/8s4[8:3],2x,7x,,,,{16},,,,,,,,,,{48}7b/2b,,,{16},,,
1q7[8:2],2,3,4,5,,8,,8q6[8:2],1,2,3,4,,7,,
7xq5[8:2],8,1,2,3,,8x,,8x>3[8:1]q1[8:1],,,,8/4,,,,
5xq3[8:2],6,7,8,1,,4,,4q2[8:2],5,6,7,8,,3,,
3q1[8:2],4,5,6,7,,4x,,4x<7[8:1]q5[8:1],,,,4/8,,,,
1x-5<7[24:5],2,3,4,5x/1,,8,,8x-4<6[24:5],1,2,3,4x/8,,7,,
7x-3<5[24:5],8,1,2,3x/7,,8,,8>4[8:1],,,,8/7,,,,
7b,8,6,1,5,2,4,3,1b,2,8,3,7,4,6,5,
6b,7,5,8,4,1,3,2,1b,3,8,4,7pp4[8:16]*pp8[64:75],5,6,4,
,,,,,,,,,,,,,,,,
,,,,,,,,,,,,,,,,
,,,,,,,,,,,,,,,,
,,,,,,,,,,,,,,,,
