&title=Nhelv
&artist=Silentroom
&first=0
&des=abc
&des_5=
&lv_5=13+
&inote_5=(174.59){4},,,,{1}5b<4[1:2],
,6<4[1:2],
,7>4[1:2],
,8>4[4:7],
,8h[1:2],
,2h[1:2],
,5h[1:2],
,3h[16:29],
{16},,,,,,,,,,,,,5,4,6,
{4}5-8[8:1],2h[8:3],{8},4,,5/4,
{4}4/5-8[8:1],2h[8:3],{8},4,,4/5,
{4}4/5-8[8:1],2h[8:3],{8},4,,4/5,
{4}4/5-8[8:1],2h[8:3],{16},5,{8}5,4/6,3/5,
{4}2/4-1[8:1],7h[8:3],{8},5,,4/5,
{4}5/4-1[8:1],7h[8:3],{8},5,,4/5,
{4}5/4-1[8:1],7h[8:3],{8},5,,4/5,
{4}5b/4bz8[4:1],7-3b[8:1],{2},{16}6,
5,6,5,{4}7h[8:1],{16}3,4,3,4,{4}2h[8:1],
{16}6,5,6,5,{4}7h[8:1],{16}3,4,3,4,{4}2h[8:1],
{16}6,5,6,5,{4}8h[8:1],{16}3,4,3,4,{4}1h[8:1],
{16}6,5,6,5,{4}8h[8:1],{16}3,4,3,4,{4}1h[8:1],
{8}8,8,7,7,6,6,5,5,
4,4,3,3,2,2,1,1,
{16}8,8,7,7,6,6,5,5,4,4,3,3,2,2,1,1,
{2}8b<1s5[2:1],Cf,
{4}1b-4[8:1],{16}5,{8},{16}6,5>2[8:1],6,{8},{16}7,{8},{16}8,
{8}8-5[8:1],1,2-7-3[4:1],3,,6,6,{16}2/5,1/6,
{4}7/8-3[8:1],4,{16}5-8[8:1],5,{8},{16}1,{8},{16}2,
{8}2-5[8:1],5-1[8:1],6,{16}7,7,,8,{8},{16}8,7,6,5,
{4}4-1[8:1],{16}8,{8},{16}7,8>3[8:1],7,{8},{16}6,{8},{16}5,
5-8[8:1],{8},{16}1-6-2-5[16:5],{4}1,{8},,,{16}8,8,
{4}1b-4[8:1],{16}5,{8},{16}6,5>2[8:1],6,{8},{16}7,{8},{16}8,
{4}8-5[8:1],{16}4,{8},{16}3,4<7[8:1],3,{8},{4}2,
{32}1b-5[8:1],2,3,4,{8},{16}1,{8},{16}3,4<7[8:1],3,{8},{16}2,{8},{16}1,
{8}1-4[8:1],8,7-2-6[4:1],6,,3,3,{16}7/4,8/3,
{4}2/1-6[8:1],5,{16}4-1[8:1],4,{8},{16}8,{8},{16}7,
{8}7-5[8:1],5-1[8:1],4,{16}3,3,,2,{8},{16}1,2,3,4,
{1}5bV36-2-7-1V38-4-7-5[8:13]*V36-2-7-1V38-4-7-5[8:13],
,4b<4z8b[1:1]*>4s8b[1:1],
{2},{16}8,8,8,8,8-4[8:1],8,8,8,
{4}8b,{16}3V15[8:3],{8},{16}6h,,6h,{8},{4}7V53[8:3],
{8}3,2,1,8-4-2[8:3],,4,5,6,
{4}7V51[8:3],{8}4,4,{16},3h,{8},{4}2V86[8:3],
{8}6,5,4,3V15[8:3],{16},8h,{8},7,7,
{4}6bV48[8:3],{16}3,{8},{16}2h,,2h,{8},{4}1V75[8:3],
{8}5,4,3,2V84[8:3],,7,{4}7,
6V48[8:3],{16}3,{8},{16}2h,,2h,{8},{4}1V75[8:3],
{8}5,4,3,2V84[8:3],{16},5,{8},6,6,
{4}7b,{16}6V84[8:3],{8},{16}3h,,3h,{8},{4}2V46[8:3],
{8}6,7,8,1-5-7[8:3],,5,4,3,
{4}2V48[8:3],{8}5,5,{16},6h,{8},{4}7V13[8:3],
{8}3,4,5,6V84[8:3],{16},1h,{8},2,2,
{4}3bV51[8:3],{16}6,{8},{16}7h,,7h,{8},{4}8V24[8:3],
{8}4,5,6,7V15[8:3],,2,{4}2,
3V51[8:3],{16}6,{8},{16}7h,,7h,{8},{4}8V24[8:3],
{8}4,5,6,7,{16}5,6,4,7,3,4,2,5,
{1}8b-4[4:17],
{2},,,2,
3,5,
6,7h[2:3],
{1},{2}5-1[4:5],
6,
,{8}8h[16:1],8h[16:1],1h[16:1]/7h[16:1],1h[16:1]/7h[16:1],
{16}2/6-8[8:1],{8},{16}5,{8}6,1,{16}2/5-8[8:1],{8},{16}4,{8}5,1,
{16}2/4-8[8:1],{8},{16}3,{8}4,1,{16}3/7h[16:3],{8},{16}5,{8}6/5,7/4,
{16}8/2-4[8:1],{8},{16}1,{8}2,5,{16}6/1-4[8:1],{8},{16}8,{8}1,5,
{16}6/8-4[8:1],{8},{16}7,{8}8,5,{16}6/2h[16:3],{8},{16}4,{8}3/4,5/2,
1/7,1,2/6,2,7/3,3,4/8,4,
1/5,5,6/2,6,7/3,7,8/4,8,
{16}1,1,2,2,3,3,4,4,5,5,6,6,7,7,8,8,
{2}1s5[4:1],6-3[8:1],
{1}8b>8[4:27],
,,,,,,5w1[8:5],
{16}7/3-1[8:1],{8},{16}4,{8}3,8,{16}7/4-1[8:1],{8},{16}5,{8}4,8,
{16}7/5-1[8:1],{8},{16}6,{8}5,8,{16}6/2h[16:3],{8},{16}4,{8}3/4,2/5,
{16}1/7-5[8:1],{8},{16}8,{8}7,4,{16}3/8-5[8:1],{8},{16}1,{8}8,4,
{16}3/1-5[8:1],{8},{16}2,{8}1,4,{16}3/7h[16:3],{8},{16}5,{8}6/5,4/7,
8/2,8/2,7/1,7/1,8/6,6/8,5/7,5/7,
4/6,4/6,3/5,3/5,2/4,2/4,3/1,3/1,
{16}8,8,7,7,6,6,5,5,4,4,3,3,2,2,1,1,
{2}8b<1s5[2:1],Cf,
{32}8b/2bp8>4[8:9],7/3,4/6p4<8b[16:17],5,{2},,,{8}6,
{4}8/4-8[8:1],
1b,{16}2,5,4,7,3>1[8:1],6,5,8,3,{8},{16}6,
{8}6-8[8:1],8-5[8:1],5-1[8:1],{16}4,4,,3,{8},{16}2-6[8:1],3,4,5,
{1}2b-6<2[8:9]*-6>2[8:9],
{8},,,,,3,{4}1/5-1[8:1],
8b,{16}7,5,7,5,6,4,6,4,5,3,5,3,
4,2,5,3,6,4,7,5,6,8,7,1,8,2,1,3,
{4}4b-8[8:1],{16}4/1,{8},{16}2,1<6[8:1],3,{8},{16}1/4,{8},{16}2,
{8}2-4[8:1],4-8[8:1],8-3[8:1],{16}6,6,{8},5,6/4,{16}7,7,
{4}5b-1[8:1],{16}5/8,{8},{16}7,8>3[8:1],6,{8},{16}8/5,{8},{16}6,
{8}6-8[8:1],8-4[8:1],4-7[8:1],{16}3,3,,2,{8},{16}1,2,3,4,
{4}5/6bpp4[8:3],3-1[8:1],3b,2/6,
4/3bqq5[8:3],6-8[8:1],6b,7/3,
{16}8b/2b-5[16:1],{8},{16}4b-8[16:1],{8},7b-4[16:1],{16},1b-5[16:1],{8},{16}3b,{8},{16}7b,
,4b,6,1,5b,3,8,6b,,4b,2,8,5b-1b[8:1],7,1,3b,
E
