&title=ハッピーシンセサイザ(快乐断手器)
&artist=pastel * palettes
&first=0
&des=DJL2374
&lv_5=14
&des_5=
&inote_5=
(127){16},,{32},,,,,,,,,,,,,4,,6/3x,,5x,,3/6x,,4x,,4/5,,5/4,,5/4,
{16},,,,,5/4,6/7,8/1,3x/2x,5/4,5,2,{8}6/2,{16}4,7,
{8}7/3,{16}5,3,{8}6/3,{16}4,7/4,{8}2/5,5,{16}7,1,{8}4,
1h[16:1]/4h[16:1],{16}3,2,{8}3/2,{16}4/1,4/1,3x/2x,3x/2x,{8}3x/2x,{16},3/2,,7x/2h[16:3],
6x,5x,{8}4x,4/2,2/4,{16}8x/2h[16:11],7x,6x,5x,4x,3x,,1x,
8x,7x,6x,5bx,,E8f/E4/D4/D8,E7/E3/D7/D3,E6/E2/D6/D2,D5/D1/E1/E5,4/2,{8},4/6,5,
6/4,{16}3,7/8,{8}8/7,3/6,5/8,2/7,6,8/4,
3,5b/2b,4/3,7b/3b,4b/3b,7/1,5/2,7/4,
6/1,6/3,{16}2/5,3,6/4,5,{8}7/4,1/7,5/3,4,
5/6,7h[8:1]/2h[8:1],{16},3/6,3/6,6b/3b,{8},4/8,6/2,5,
7/2,{16}1/4,4/1,,3/5,4,5x/6x,{8}2x/1x,4/7,2/5x,{16}6/1,7/3,
{8}7/3,{16}2/5,3,6/4,5,7/4,3/6,{8}7/1,5/2,7/4,6/1,
7/2,{16}3/8,2,7/1,8,,6/4,,8/3,{8}6/1,7/4,7/2,
2/5,6/4,{16}D6/D2,E6/E2,C,B7/B3,{8}A7/A3,1/6,{16}2,7/3,{8}3/7,
{16}7/3,6/2,{8}5/1,{16}5/1h[8:1],6,{8}7,4/8,4,5/1,7,
{16}6/2,3,{8}4/6,{16}8,6/2,{8}6/2,{16}2,4/1,{8}4/1,{16}2,4,{8}4,
{16}1/8,7/2,3/6,4/5,6x/3x,7/2,{8}1,{16}2/8,3/7,{8}4/6,{16}5,5,{8}5/8h[16:9],
{16}4x,3,2,1,,7,6,5,{8},6/5,{16}4,5/3,{8}5/3,
8,{16}7/1,6/2,{8}3/5,4,{16}7,2,{8}2,{16}4/8,7,{8}7,
{16}8x/7x,1/8,1x/2x,1/8,8x/7h[8:3],1,B1,C,B2,C,{8}B3,,4/8h[8:3],
{16}4b,4b,4b,4b,{8}4bx,{16}5/2,4,{8}4,{16}7/5,6,{8}6,4/6,
{16}5/3,6/2,6/2,5/3,{8}3/5,8/4,7/3,6/2,{16}4,5/3,6/2,7/1,
{8}8,2/6,3,4/2,4/6,4/2,4,{16}4/1,4/2,
4/3,5/4h[16:3],6,7,{8}8,4/3,4/5,5/6,6/7,7/8,
{16}5x/8x,5x/7x,5x/6x,4/5h[16:3],3,2,{8}1,4/6,1,3/5,8,
{16}6/4,4/6,1,1,{8}3/5,8,6/4,1,{16}3/5,8,1,8x,
{8}4/6x,8x,5/3,1,{16}4/6,8,1,8,{8}3/5x,8,
4/6,1,3/5,8,4/6,1,3/5,8,
{64}6bx/3bx,5x/4x,{32},,,{64}5bx/4bx,3x/6x,7x/2x,1x/8x,{16},{64}8bx/1bx,7x/2x,3x/6x,5x/4x,{16},,,{8}6/4,5x/3x,4/5,4x/5x,
{16}4,5,4,5,4,5,{8}4,5,{16}7/3,1,{8}1,{16}6/2,8,
{8}8,7/2,{16}1,6/1,{8}3/8,8,{16}6/4,4/6,{8}1,8h[16:1]/5h[16:1],
{16}7,6,{8}6/7,{16}5/8,5/8,,6x/7x,6x/7x,6x/7x,,6/7,,2x/7h[16:3],3x,4x,
{8}5x,5/7,7/5,{16}1/7h[16:11],2,3,4,5,6,,8,1,2,
3,4bh[4:1],{8},,,{16}4/7,5,{8}5,{16}3/6,4,{8}4,
{16}6/3,6/3,{8}6/3,3/7,{16}5,6/2,{8}2/6,{16}4,5,{8}6,{16}7/3,8/4,
7/3,6/2,{8}5/1,{16}4,4,4,6,5,4,3/5x,4,3,2/4x,5,6,
5,4,{8}3/7,5,8/2,4,7/1,{16}5b/1h[4:1],5b,5b,5b,
{8}5bx,5,5,5,{4}3/4x-6-8-2-4[16:11],6x,
{8},8x,{16},4x-7>3[0.2315##1.7717],{8},{16}5x,4,3,2,{8}1,{16}1,8,
7,6,5,4,,2,1,8,{8}7,6/7x,5/8x,1x/4,
2x/3,4/1x,5/8x,6/7x,5/8x,4/1x,{16}2x/3x,3/2,3/2,3/2,
3/2h[4:1],4,5,6,{8}7,8,8,{16}7x,8x,7,8,{8}7,
{16}6/3,6/3,,4/B7/B6,4/A7/A6,4/B7/B6,4/A7/A6,4/B7/B6,1x,2x,1,2,{8}1,{16}3/6,3/6,
,5/B2/B3,5/A2/A3,5/B2/B3,5/A2/A3,5h[16:3]/B2/B3,{4},{8}5,8/2,{16}5,5,
{8}7/1,{16}4,5,{8}4,1/7,5,5<1[0.2315##0.4677],{16}3b,3b,,1>5[0.1134##0.4677],
{8}A1,{16}5<8[0.2315##0.2315],A5,{4}8<8[0.2315##1.1764],{16}6>8[0##0.9449],B6,B5,B4,B3,B2,B1,B8,
{8}E8,{16}7x,8,7,8,6x,5,6,5,3x,4,3,4,2x,1,
2,1x,2,1,2x,4x,3,4,3,5,6,5,3/6h[4:1],3,3,3,
{8}3,{16}7,8,7,8/5,7x/4x,6/3x,5x/2x,1/4,2x/6x,7/1x,8,1/7,6/2,5/3,
{8}4,1/5h[16:3],{16}7h[16:5],{8},{16}3h[8:1],{8},{16}7x/3x,4/8,1/5,6/2,3/7,8/4,
5/1,2h[16:3]/6h[16:3],,,,2x/6x,1x/5x,8x/4x,3x/7x,6/2,1/5,8/4,{4}7h[8:1]/3h[8:1],
{16}4b/8b,5bx/1bx,{8}5bx/1bx,{16}2bx/6bx,6bx/2bx,{8}7bxh[16:3]/3bxh[16:3],{4},{16}2/7,2/7,6,6,
3,5,5,4/7,4/7,6,{8}4,{2}4qq5[0##0.9449]/6pp5[0##0.9449],
{8},6h[4:1]/3h[16:5],{16},,,6x,3/6h[16:3],3h[16:3],{8},{16}6x,6/3,3/6h[16:3],3h[16:3],
{8},{16}6x,6/3,3/6,3/6h[16:3],{8}3h[16:3],{16},6x,6/3,3/6,{8}6/3,{16}5/3,4/2,
{8}4/2,{16}3/1,8/2,{8}2/8,{16}1/7,8/6,{8}8/6,{16}7/5,6/4,{8}6/4,{16}5/3,4/2,
4h[8:1]/2h[8:1],{8},{32}2x/4x,3x/5x,4x/6x,7x/5x,{8},{16}5,6/4,7/3,8/2,1,2/8,7/3,6/4,5h[16:1],
{8},{16}5,5,5,5/4,6x,5/4,3x,5/4,6x,5/4,3x,4/5,3x/6x,5x/4x,
{2}5h[8:3]/4h[8:3],{16}1/7,8/6,{8}8/6,{16}7/5,6/4,{8}6/4,
{16}3/5,5pp4[0.3543##0.9449]/3qq4[0.3543##0.9449],{8}3h[8:1]/5h[8:1],{16},{32}B5/B3,C,C,B7/B1,B8,E8/E1,A7/A1,D7/D2,,A6/A2,{16}E6/E3,E5/E4,{8}A4,5/4,
5/4,{16}3b,6b,2b,7b,{8}1b,{16}8b,7/1,{8}7/1,{16}5b,8/2,{8}8/2,
{16}4b,5b,{8}4b,{4}1h[8:1]/7h[8:1],{16}7/1,1/7,{8}7h[2:1]/1h[2:1],{2},{4}3/6-3[4:1],
{8}3,3-8[0.2362##0.4724],8,8-5[0.2362##0.4724],
5,5-2[0.2362##0.4724],2,2-7[0.2362##0.4724],7,7-4[0.2362##0.4724],4,4-1[0.2362##0.4724],
1,1-6[0.2362##0.4724],6,6>6[0.2362##0.9449],4h[16:1],2h[16:1],8h[16:1],6<6[0.2362##1.8898],
{16}8,8,1,1,2,2,3,3,4,4,5,5,5,5h[16:7],{2},{16}2/6,
7/3,{8}3/7,{16}2/6,7/3,{8}3/7,2/7,
{16}2,7,1,8,2,7,1,8,2,7/3,3/7,5,5,6/2,{8}6/2,
4,{32}5,4,5,4,5,4,5,4,5,4,5,4,{16},2/5,3,4,5/2,4,3,2/5,
3,4,5/2,6,7/4,6,5,4/7,5,6,{8}7/4,{16}6pp5[2:1]/4qq5[2:1],6h[16:3]/4h[16:3],,,,B6/B4,
C,{32}B1,E1/E2,A8/A2/D8/D3,{16},{32}A7/A3,{16}E7/E4,E6/E5,{2}A5,
E
&lv_6=13+
&des_6=DJL2374
&inote_6=
(127){4},,{12}6,3,7,4,3,6,
{4}2,{16}2,2,2,2,{8}2,7-5[8:1],2,3,
2,{16}4,2,,2,{8}7,2-4[8:1],8,2,5,
2/5,{16}7,7,{8},2,4/5,{16}2,2,,2,,7/4,
,8/1,,8/1,{8},8,8/5,5/7,5/2,5/8,
{16},7,{8}2,{4}4b/5b,{8}7/4,2,3/6,8,
7/4,{16}2,3/6,,4,{8}2/5,7/4,2,3/6,8/1,
4,{16}3/5,1,,8,5/3,2,{8}7/4x,2,3/6,8,
7/4,{16}2,3/6,,4,{8}2/5,7/4,2,6/3,8/1,
4,{16}2/5,1,,7,5/3,2,{8}4/7,2,3/6,8,
7/4,{16}2,3/6,,4,{8}2/5,7/4,2,3/6,8,
4,{16}3/5,2,,6,5/3,2,{8}7/4,2,6/3,8,
7/4,{16}2,3/6,,4,{8}2/5,7/4,5/2,6/3,5/8,
4,{16}3/5,1,6,4,3/5,2,{8}6,7,5/2,7,
{16}3-1[0.3543##0.2362],7,,3/5,{8},6,7/4,1/2,7,7,
{16}6-8[0.3543##0.2362],6,,2/6,{8},{16}4b,5b,{8}4b,6,3,{16}7,7,
3,7,,4/5<7[0.3543##0.2362],{8},5/1,4,{16}2,6,,2,{8}6,
4b,2b,8b,6b,6/3,7,2,7,
{16}2,7-5[0.2362##0.2362],,7/3,{8},6,8/4,2>4[8:1],6,6,
{16}7,7,,3,{8},{16}4b,5b,{8}4b,{16}2,6,{8}2,{16}6,6,
3-7[0.3543##0.2362],7,,3,{8},8/6,1,{16}2,7,,2,{8}7,
8b/4b,3b/7b,6b/2b,5b/1b,{16}2,7,2,7,{8}2,{16}6,2,
,1,,6/3,{8},{16}5,5,{8}4,{16}3,6/1,,6/1,,6/1,
,7,7,3,,6,{8},{16}2,7,2,7,{8}2,{16}6,2,
,1,,6/3,{8},{16}5,5,{8}4,{16}3,6,,8,,5,
{8}4,2,8,6/2,{16}1b,7b,1b,7b,{8}1b,{16}6,1,
,8,,3,{8},{16}5,5,{8}4,{16}3,6,,6,,7,
3,7,3,6,{8},3,{16}2b,7b,2b,7b,{8}2b,{16}6,{32}2,3x,
{16}4x,{32}8,7,{16}6x,{32}2,3x,{8}4x,{16}5/2,5,{8}4,{16}3,6,,7,2,7,
{8}2/4,3/6,2/5,7b/3b,6/2,5,6/2,5,
5/1,{16}3,6,,7/2,{8}5,6/2,5,7/2,8/4,
7/2,{16}2/5,5,{8},5/2,6/4,{16}3/1,1,,1/3,,8/6,
,1/3,,1/3,{8},3/1,1/3,2/6,7/4,8/3,
3/6,{16}2,7,,6,3,8,{8}5x/4x,1x/8x,6/2,8/1,
{16}5/2,4,,3,7,3,{8}6,5/3,8/1,6/3,4,
3/5,{16}2,2,{8}2x,7,5/4,{16}2,2,2x,7,,6/8,
,2,,2,{8},2,2/7,8/1,6/4,2,
4/7,{16}2,6,,2,7,5,{8}1/4,6,{16}7/2,2x/7x,{8}8/1,
2/4,{16}3/5,1,,2/5,{8}7,1/4,6,7/2,{16}8/1,7x/2x,
{8}6/3,{16}3,5/1,,2,8,3,{8}4/1,6,7/3,8,
6/2,7,5/1,{16}2,5/8,,4,{8}8,8/3,6/2,
7/3,5/1,3,{16}2,6,,6,3,8,{8}4/5x,6,
{16}7/3,3x/7x,{8}8,1/5,{16}2,5/8,,1,{8}7/4,8/3,6,
{16}7/4,7/4,{8}8,{16}3,6,2,5,,7/4,2,6,{8}8/5,6,
5/2,3,6/4,{16}2,7/4,,6/4,{8}3/5,7/3,8/5,
7/3,6/2,4,{16}2,2,7,3,8,5,3,7,2,4,
6,3,4,8,5,6,8,4,{32}7,6x,{16}5x,1,5,1,6,1,4,
,2,,3,{8},2,{16}7,7,2,7,1,7,1,4,
,2,,1,,6,1,4,,3,{8}2,{16}1,7,1,4,
,2,,8,,6,{8}4,8,6,7/2,1/6,
{16}3,2/7,,7/2,{8}7/2,1/6,{16}3,2/7,,7/2,{8}7/2,1/6,
{16}3,2/7,,7/2,{8}7/2,2/7,7/2,7/2,2/5,5/8,
{16}3,2/5,,5/2,{8}5/2,1/5,{16}3,2/5,,5/2,{8}5/2,1/5,
{16}3,2/5,,5/2,{8}5/2,{16}5/4,5/4,,5/4,{8}5/4,{16}3,3,7/3,7,
2/7,2,8/2,8,{8}3/8,{16}4,3,,3,{8}7,5/3,8/1,
{16}6/3,2/7,{8}8/1,{16}2,7,4,5,,{32}6/2,7x,{8}1/8,3/5,7,
{16}6/2,5/3,{8}4,{16}1/8,5,3,3,,6,{8}6/8,5/4,{16}2,2,
6,3,,1,5,6/3,,3,{8}6,8,5/8,7,
6/4,2,{16}4/5,3,6,1,6,4,7,2,{8}4x/6x,{16}8x/2x,3/7,
{8}6/4,8,{16}5/2,3/6,,2,6,2,{8}7,2/5,7,
6/2,{16}3,3,{8}5/2,{16}1,6,{8}1,{16}7/2,3/6,{8}5/4,{16}3,3,
6,3,,1/8,5,6/3,,3,{8}6,3,3/5,7,
6/4,2,4/5,{16}3/5,1,6,4,3/5,2,{8}5,6/8,
7/1,6/2,7/3,{16}2/6,7/1,,8/4x,{8}3/7,6/4,7/3,
5/1,6/2,7/3,{16}5/3,6/2,,7/4,3/8,6,{8}1/4,2/5,
7/4,6/8,5/1,{16}6/2,1/7,6/2,5/3,{8}8x/2x,8/3,7x/5x,
6/1,5/8,2/7,{16}1,6/4x,,8,3,{32}5x,6x,{8}4/7x,8/3,
8/5,1/6,7/2,{16}8/2,1/6,,{32}8/5,7x,{8}6/1,5/2,7/1,
8/5,6/1,7/2,{32}7/2,3x,{16}8/4,,6/8,1/7,5,{8}7/4,6/3,
5/1,7/2,1/6,{32}7/3,6,{16}2/5,,4,{8}6/2,4/1,3/8,
5/2,1/4,8/5,{16}1,6,2,2,7,7,{4}3b,
E
