&title=pump♂it
&artist=雨鸦&画画峰
&first=0.05
&des=NaOH
&clock_count=4
&lv_5=13
&inote_5=(153.6){4}
,,,,,,,Cf,
{8}6xh[4:1]/4x,,,3h[4:1]/5,,,7h[4:1]/4,,,2h[4:1]/5,,,7-2[8:1]/4,,73,,
3xh[4:1]/4x,,,6h[4:1]/5,,,7^2[8:1]/4,,3,,4-1[8:1],,45,,
8qq5b[4:3],,{32}1b/8b,E2,B2,B3,E4f,,,,{8}2x,2x,,3x,3x,,
3^6[8:1],,7,8-5[8:1],,2,1-4[8:1],,18,,7,6^3[8:1],,2,1-6[8:1],,
12,,1<5[8:1],,12,,1pp4b[4:3],,{32}1b/5b,E6,B6,B7,E8f,,,,
{8}7x,7x,,6x,6x,,7^2[8:1],,6,5-8[8:1],,3,4-1[8:1],
{16},7h[16:1],4,,,,8pp4[8:3]*qq4[8:3],,,,,,B8f/E1/E8,,,,,,
{8}2x/6x,,1qq4[8:3]/7pp4[8:3],,,B8f/E1/E8,,,
3x/5x,,4pp8[8:3]*qq8[8:3],,,B4f/E4/E5,,,
1x/7x,,3pp8[8:3]/5qq8[8:3],,,B4f/E4/E5,,,
{16}2bx>5[8:1]/6bx,,,,12,,8,,7h[16:3],,,5,6,,47,,
3/8h[16:3],,,2,1,,38,,3^6[8:1]/8,,,7,3>6q3b[4:3],,,,7h[4:2],,,,,,,,
,,,,5s1[6:1],,,,3p6[4:1],,,,6q3[4:1],,,,3>6[8:1]*p6[8:1],,,,,,,,
{8}
5x-1[8:1],,2-4[12:1],2,,7,8-4[8:1]*-4[8:1],,5qq1[8:3],,6,6,,7,8<5[8:1],,
18,2,3h[4:1],,4-8[8:1],2,3,,2,6,7-3-7b[4:1]/3,,A3f,,A7f,,
2x-4[12:1],,8-6[12:1],,5-1[8:1],5,7,,
2q6[8:1],2,8<5[8:1],,3,2,5x-8[8:1]/1,,8z4[4:1],,,1,B1,,
B6/B5/E6/D6/A6/A5/E5/D5f/B4/A4/E4/D4/B3/A3,,8xpp4b[4:2]*qq4b[4:2],,,,,,,,
6x-8[12:1],,4-2[12:1],4,,1-5[8:1],1,,
2h[16:7],,3h[16:3],,{24}E2/E4,B1/B4,B8/B5,E8/E6,,,
{8}5x-7-2-4[4:2],,1h[4:3],,,,,,4-2-7-5b[4:2],,1h[4:3],,,,,,
6h[4:1],,8,,1-5[8:1]*^8-6^5[8:1]/8-6^5[8:1],,
8-4[8:1]*^1-3^4[8:1]/1-3^4[8:1],,18,,
{24}E8,B7,B6,E6,,,E2,B2,B3,E4,,,{16}E1,C,E5,,
{4}4x-1-6b[4:1],7-3[8:1],2-4[4:1],4v5[4:1],5-7[8:1],
1<4[4:1],4<1b[4:1],Cf,
2x-6[8:1],8v3[8:1]*v5[8:1]/2,8<2b[4:1],C,
1x-7[8:1],8v5[8:1]*v3[8:1]/1,8>6b[4:1],C,
7x-2[8:1],1v4[8:1]*-5[8:1]/7,1>7b[4:1],C,8h[4:1],
5qq5b[4:1]*-8b[4:1],,,E5f/B4/B5/E1/B1/B8,
{8}7xh[4:1],,3,2p5[8:1]/6-3[8:1],,2b/6b,,{16},8,8h[4:1],,,,
4,,5q2[8:1]/6-3[8:1],,,,5b/6b,,,,,
1,1h[4:1],,,,4,,2p5[8:1]/3-6[8:1],,,,2b/3b,,,,,8,8h[4:1],,,,
2,,5q2[8:1]/3-6[8:1],,,,3b/5b,,,,,
4,4h[4:1],,,,5-8-2[4:1],,3-7[8:1],,,,3b,,,,,
4,4h[4:1],,,,7-3[8:1],,2-8-5[4:1],,,,2b,,,,,,
{8}7x<3[4:1],,3q8[4:1],2,,1,1,,2x>6[4:1],,6p1[4:1],7,,7,7h[4:2],,
{32}E4,B4,B5,E6,A6,,,,3h[4:2],,,,,,,,
E8,B8,B1,E2,A2,,,,7h[4:2],,,,,,,,
E4,B4,B5,E6,A6,,,,3h[4:2],,,,,,,,
E8,B8,B1,E2,A2,,,,
{8}5p4>6[4:3],,2h[4:2],,,,,,2p1<4[4:3],,6h[4:3],,,,,,,,
7h[8:1]/5,,2h[8:1]/4,,7h[8:1]/5,,2h[8:1]/4,,
7pp8-5b[4:2],2,7,,{32}1bx,E2,B2,B3,E4f,,,,,,,,,,,,
{4}5x-3-7-1[4:2]/4x-6-2-8[4:2],,,,Cf,,,,
{8}
6^3[8:1],,2,2^7[8:1],,6,5-8[8:1],,45,,2>5[8:1],5p1[8:1],,6,6,,
7^2[8:1],,3,3^6[8:1],,7,8-5[8:1],,18,,1z5[4:1]/8s4[4:1],,,,,,
{16}27,,,,1v4v1[4:1]/8v5v8[4:1],,,,,,,,,,,,
{8}2v5[8:1],,6,7-2[8:1],,3,4-1[8:1],,45,,7<4[8:1],4q8[8:1],,3,3,,
7-2[8:1]/2v5[8:1],,7b/2b,,A6f/B6/E6/A3/B3/E4,,,,
6x<1[8:1]/3x,,2>5[8:1]/6,,8-5[8:1]*-3[8:1]/2,,8,,
8<5[8:1]/4,,4>1[8:1]/8,,7-3[8:1]*-4[8:1]/4,,7,,
2-5[8:1]/6,,6-1[8:1]/2,,2-5[8:1]*-7[8:1]/6,,2,,
1-4^5^4-1b[4:2]*^8-5-8^1b[4:2],,,,,,,,
1>5[4:1],,5<1[4:1],,C,,5xpp5[4:1]*qq5[4:1],,5
,,,,7xpp8-5[4:1],,,,
2x-6[8:1],,3V15[4:1],,
7-5v4-2[8:3],,,,1<4<1b[4:2],,7x,,Cf,,,,
{4}2x-6[8:1],8v3[8:1]*v5[8:1]/2,8<2b[4:1],C,
1x-7[8:1],8v5[8:1]*v3[8:1]/1,8>6b[4:1],C,
7x-2[8:1],1v4[8:1]*-5[8:1]/7,1>7b[4:1],C,
8-5qq5b[4:2],,,
{16},,,
2x/6x,26,,,,37,,4p8b[8:1]/8p4b[8:1],,,,A8f/A4,,,,,
3x/7x,37,,,,2pp6b[8:3]*qq6b[8:3]/6,,48,,,,A2f/E2/E3,,,,,,
7x/3x,,,,62,,5q1b[8:1]/1q5b[8:1],,,,A1f/A5,,,,,
6x/2x,62,,,,7qq2b[8:3]/5pp2b[8:3],,48,,,,A6f/E7/E6,,,,,,
4x/8x,,,,37,,2q6b[8:1]/6q2b[8:1],,,,A2f/A6f,,,,,
3x/7x,37,,,,4pp8b[8:3]*qq8b[8:3],,17,,,,A4f/E5/E4,,,,,,
{8}7x<4[8:1],,3>8[8:1]*>8[8:1],8z4b[4:1],,E8/B7,B6/E6,,
2x>5[8:1],,6<1[8:1]*<1[8:1],1s5b[4:1],,E2/B2,3h[4:2],,
{32}E8,B8,B1,E2,A2,,,,7h[4:2],,,,,,,,
E4,B4,B5,E6,A6,,,,3h[4:2],,,,,,,,
E8,B8,B1,E2,A2,,,,7h[4:2],,,,,,,,
E4,B4,B5,E6,A6,,,,
{4}2<4-1[4:3],7h[4:2],,,5-8[5:1],8-4[4:1],4-1[4:1],3,3,
{8}7h[8:1]/5,,2h[8:1]/4,,8h[8:1]/6,,1h[8:1]/3,,
7pp8-5b[4:2],2,7,,{32}1bx,E2,B2,B3,E4f,,,,,,,,,,,,
{4}5p4>1[4:2]/4q5<8[4:2],,,,
{8}2,2,4,4,5,5,7,7,
{4}1bh[4:23]/5bh[4:23],,,,,,,,,,,,,,,,,,,,,,,,
{8}2-7[8:1],,3-6[8:1],,2-7[8:1],,3-6[8:1],,
2-8[12:1],2,3-5[12:1],3,2w6[8:1],,2,,
3q5[8:3],6,3,,A6/B6,,A7/B7,,
6^3[8:1],5,6,,8-5-8b[4:2]*>5>8b[4:2],,8,,,,,,6-3[8:1]/2p5[8:1],,,,
7-4[8:1],68,7,,2-5[8:1],13,2,,
7-4[8:1],8,2-5[8:1],1,8-4[8:1],,8w4b[8:1],,8b/Cf/B8/B3/B4/B5,,,,,,,,
5-1[8:1],,4-2[12:1],,5-1[8:1],,4-2[12:1],,
5pp1[8:3],,4,3,2-4[8:1]*-5[8:1],,2,,
7h[4:1],5,3h[4:1],5,6h[8:1],{16}4,4,6,,57,,
{8}8,17,26,35,4v1[8:1]*v7[8:1],,,,
6-2[8:1],,3-5[12:1],,7-3[8:1],,2-8[12:1],,
7p5[8:3],,1,2,3-1[8:1]*-8[8:1],,3,,
7h[4:1],1,3h[4:1],1,8,{16}27,36,45,,
{8}27,7s3s7[4:2]/2z6z2[4:2],,,,,,,,
{8}6x-4[12:1],,36,,3,2-5[8:1]/6,,26,
8<5[8:1],,2q6[8:1]/8,,7-4[8:1]*-5[8:1]/2,,7>4>7[4:2],,7/2h[4:2],,,,,,4-1[8:1]/6,,
7,6,5,4,6h[4:1]/5,4,3>5[4:2],2,37,,,,,8,8h[4:4]/1-4[8:1],,1,,
1-6[8:1],,1,,1w5[8:1],,1b,,2w6[8:1],,2b,,3w7[8:1],,3b,,4w8b[8:1],,4b,,
{16}2x/7x,,3,3,
4,,6,5,7-1[8:1],,2-6[8:1],,7-4b[8:1],,2,,7,,3,3,
5x,,2,2,8-5[8:1],,3-7[8:1],,8-2b[8:1],,3,,8,,4,4,
6x,,3,3,7-4[8:1],,2-6[8:1],,7-1b[8:1],,2,,7,,3,3,
7x,,6,6,3-7[8:1],,5-8-2b[4:1],,3,,5,,,,,,
6x,,3,3,7-3[8:1],,2V85b[4:1],,7,,2,,,,7,7,
3x,,6,4,5-8-2[4:1],,7-3b[8:1],,5x,,7x,,,,,,
{8}2xq7[4:1],,7^2^5b[8:3]*^2[16:3],8,,A6/D7,A7/D8,,
7xp2[4:1],,2^7^4b[8:3]*^7[16:3],1,,2,3^1[8:1],,
{32}3bx/4bx,D3,A2,D2,A1,,,,
3>8[8:1],,,,,,,,{48}3bx/4bx,D3,A2,D2,A1,D1,A8,,,,,,
3>7[8:1],,,,,,,,,,,,{64}3bx/4bx,D3,A2,D2,A1,D1,A8,D8,A7,,,,,,,,
{4}3>4b[4:1],3bx/8bxh[4:1],,
1s5s1[4:2]/8z4z8[4:2],,,,7s3s7[4:2]/6z2z6[4:2],,,,
{16}2bh[8:2]/5b,,,,3,,4,,1/5h[16:3],,,6,5,,47,,
4h[16:3]/8,,,3,4,,25,,1h[16:3],,,8,7p4>5[4:4]/2,,,,
{8}7/3h[4:3],,,,,,,,1,2,3,4,56,78,12,34,
Cf/E1/E2/E3/E4/E5/E6/E7/E8/B1/B2/B3/B4/B5/B6/B7/B8,
